  0
SECTION
  2
HEADER
  9
$ACADVER
  1
AC1015
  9
$ACADMAINTVER
 70
     6
  9
$DWGCODEPAGE
  3
ANSI_932
  9
$INSBASE
 10
0.0
 20
0.0
 30
0.0
  9
$EXTMIN
 10
-105.0
 20
-148.5
 30
0.0
  9
$EXTMAX
 10
105.0
 20
148.5
 30
0.0
  9
$LIMMIN
 10
-105.0
 20
-148.5
  9
$LIMMAX
 10
105.0
 20
148.5
  9
$ORTHOMODE
 70
     0
  9
$REGENMODE
 70
     1
  9
$FILLMODE
 70
     1
  9
$QTEXTMODE
 70
     0
  9
$MIRRTEXT
 70
     1
  9
$LTSCALE
 40
1.0
  9
$ATTMODE
 70
     1
  9
$TEXTSIZE
 40
2.5
  9
$TRACEWID
 40
0.05
  9
$TEXTSTYLE
  7
MX_NOTE_STANDARD
  9
$CLAYER
  8
DEFPOINTS
  9
$CELTYPE
  6
CONTINUOUS
  9
$CECOLOR
 62
   256
  9
$CELTSCALE
 40
1.0
  9
$DISPSILH
 70
     0
  9
$DIMSCALE
 40
1.0
  9
$DIMASZ
 40
2.5
  9
$DIMEXO
 40
1.5
  9
$DIMDLI
 40
3.75
  9
$DIMRND
 40
0.0
  9
$DIMDLE
 40
0.0
  9
$DIMEXE
 40
1.5
  9
$DIMTP
 40
0.0
  9
$DIMTM
 40
0.0
  9
$DIMTXT
 40
2.5
  9
$DIMCEN
 40
2.5
  9
$DIMTSZ
 40
0.0
  9
$DIMTOL
 70
     0
  9
$DIMLIM
 70
     0
  9
$DIMTIH
 70
     0
  9
$DIMTOH
 70
     0
  9
$DIMSE1
 70
     0
  9
$DIMSE2
 70
     0
  9
$DIMTAD
 70
     1
  9
$DIMZIN
 70
     8
  9
$DIMBLK
  1

  9
$DIMASO
 70
     1
  9
$DIMSHO
 70
     1
  9
$DIMPOST
  1

  9
$DIMAPOST
  1

  9
$DIMALT
 70
     0
  9
$DIMALTD
 70
     4
  9
$DIMALTF
 40
0.03937
  9
$DIMLFAC
 40
1.0
  9
$DIMTOFL
 70
     1
  9
$DIMTVP
 40
0.0
  9
$DIMTIX
 70
     0
  9
$DIMSOXD
 70
     0
  9
$DIMSAH
 70
     1
  9
$DIMBLK1
  1
_OPEN30
  9
$DIMBLK2
  1
_OPEN30
  9
$DIMSTYLE
  2
MXDIMSTYLE
  9
$DIMCLRD
 70
     0
  9
$DIMCLRE
 70
     0
  9
$DIMCLRT
 70
     0
  9
$DIMTFAC
 40
1.0
  9
$DIMGAP
 40
0.5
  9
$DIMJUST
 70
     0
  9
$DIMSD1
 70
     0
  9
$DIMSD2
 70
     0
  9
$DIMTOLJ
 70
     0
  9
$DIMTZIN
 70
     0
  9
$DIMALTZ
 70
     0
  9
$DIMALTTZ
 70
     0
  9
$DIMUPT
 70
     0
  9
$DIMDEC
 70
     2
  9
$DIMTDEC
 70
     2
  9
$DIMALTU
 70
     2
  9
$DIMALTTD
 70
     4
  9
$DIMTXSTY
  7
MX_NOTE_STANDARD
  9
$DIMAUNIT
 70
     0
  9
$DIMADEC
 70
     0
  9
$DIMALTRND
 40
0.0
  9
$DIMAZIN
 70
     0
  9
$DIMDSEP
 70
    46
  9
$DIMATFIT
 70
     3
  9
$DIMFRAC
 70
     0
  9
$DIMLDRBLK
  1
_OPEN30
  9
$DIMLUNIT
 70
     2
  9
$DIMLWD
 70
    -2
  9
$DIMLWE
 70
    -2
  9
$DIMTMOVE
 70
     0
  9
$LUNITS
 70
     2
  9
$LUPREC
 70
     4
  9
$SKETCHINC
 40
0.1
  9
$FILLETRAD
 40
0.0
  9
$AUNITS
 70
     0
  9
$AUPREC
 70
     0
  9
$MENU
  1
acad
  9
$ELEVATION
 40
0.0
  9
$PELEVATION
 40
0.0
  9
$THICKNESS
 40
0.0
  9
$LIMCHECK
 70
     0
  9
$CHAMFERA
 40
0.0
  9
$CHAMFERB
 40
0.0
  9
$CHAMFERC
 40
0.0
  9
$CHAMFERD
 40
0.0
  9
$SKPOLY
 70
     0
  9
$TDCREATE
 40
2459101.710682870
  9
$TDUCREATE
 40
0.000000000
  9
$TDUPDATE
 40
2459101.710682870
  9
$TDUUPDATE
 40
0.000000000
  9
$TDINDWG
 40
0.0000000000
  9
$TDUSRTIMER
 40
0.0000000000
  9
$USRTIMER
 70
     1
  9
$ANGBASE
 50
0.0
  9
$ANGDIR
 70
     0
  9
$PDMODE
 70
     0
  9
$PDSIZE
 40
0.0
  9
$PLINEWID
 40
0.0
  9
$SPLFRAME
 70
     0
  9
$SPLINETYPE
 70
     6
  9
$SPLINESEGS
 70
     8
  9
$HANDSEED
  5
1F3
  9
$SURFTAB1
 70
     6
  9
$SURFTAB2
 70
     6
  9
$SURFTYPE
 70
     6
  9
$SURFU
 70
     6
  9
$SURFV
 70
     6
  9
$UCSBASE
  2

  9
$UCSNAME
  2

  9
$UCSORG
 10
0.0
 20
0.0
 30
0.0
  9
$UCSXDIR
 10
1.0
 20
0.0
 30
0.0
  9
$UCSYDIR
 10
0.0
 20
1.0
 30
0.0
  9
$UCSORTHOREF
  2

  9
$UCSORTHOVIEW
 70
     0
  9
$UCSORGTOP
 10
0.0
 20
0.0
 30
0.0
  9
$UCSORGBOTTOM
 10
0.0
 20
0.0
 30
0.0
  9
$UCSORGLEFT
 10
0.0
 20
0.0
 30
0.0
  9
$UCSORGRIGHT
 10
0.0
 20
0.0
 30
0.0
  9
$UCSORGFRONT
 10
0.0
 20
0.0
 30
0.0
  9
$UCSORGBACK
 10
0.0
 20
0.0
 30
0.0
  9
$PUCSBASE
  2

  9
$PUCSNAME
  2

  9
$PUCSORG
 10
0.0
 20
0.0
 30
0.0
  9
$PUCSXDIR
 10
1.0
 20
0.0
 30
0.0
  9
$PUCSYDIR
 10
0.0
 20
1.0
 30
0.0
  9
$PUCSORTHOREF
  2

  9
$PUCSORTHOVIEW
 70
     0
  9
$PUCSORGTOP
 10
0.0
 20
0.0
 30
0.0
  9
$PUCSORGBOTTOM
 10
0.0
 20
0.0
 30
0.0
  9
$PUCSORGLEFT
 10
0.0
 20
0.0
 30
0.0
  9
$PUCSORGRIGHT
 10
0.0
 20
0.0
 30
0.0
  9
$PUCSORGFRONT
 10
0.0
 20
0.0
 30
0.0
  9
$PUCSORGBACK
 10
0.0
 20
0.0
 30
0.0
  9
$USERI1
 70
     0
  9
$USERI2
 70
     0
  9
$USERI3
 70
     0
  9
$USERI4
 70
     0
  9
$USERI5
 70
     0
  9
$USERR1
 40
0.0
  9
$USERR2
 40
0.0
  9
$USERR3
 40
0.0
  9
$USERR4
 40
0.0
  9
$USERR5
 40
0.0
  9
$WORLDVIEW
 70
     1
  9
$SHADEDGE
 70
     3
  9
$SHADEDIF
 70
    70
  9
$TILEMODE
 70
     1
  9
$MAXACTVP
 70
    16
  9
$PINSBASE
 10
0.0
 20
0.0
 30
0.0
  9
$PLIMCHECK
 70
     0
  9
$PEXTMIN
 10
1.000000E+20
 20
1.000000E+20
 30
1.000000E+20
  9
$PEXTMAX
 10
-1.000000E+20
 20
-1.000000E+20
 30
-1.000000E+20
  9
$PLIMMIN
 10
0.0
 20
0.0
  9
$PLIMMAX
 10
12.0
 20
9.0
  9
$UNITMODE
 70
     0
  9
$VISRETAIN
 70
     0
  9
$PLINEGEN
 70
     1
  9
$PSLTSCALE
 70
     0
  9
$TREEDEPTH
 70
  3020
  9
$CMLSTYLE
  2
Standard
  9
$CMLJUST
 70
     0
  9
$CMLSCALE
 40
1.0
  9
$PROXYGRAPHICS
 70
     0
  9
$MEASUREMENT
 70
     1
  9
$CELWEIGHT
370
     0
  9
$ENDCAPS
280
     0
  9
$JOINSTYLE
280
     0
  9
$LWDISPLAY
290
     0
  9
$INSUNITS
 70
     0
  9
$HYPERLINKBASE
  1

  9
$STYLESHEET
  1

  9
$XEDIT
290
     1
  9
$CEPSNTYPE
380
     0
  9
$PSTYLEMODE
290
     1
  9
$FINGERPRINTGUID
  2

  9
$VERSIONGUID
  2

  9
$EXTNAMES
290
     1
  9
$PSVPSCALE
 40
0.0
  0
ENDSEC
  0
SECTION
  2
CLASSES
  0
CLASS
  1
LWPOLYLINE
  2
AcDbPolyline
  3
AutoCAD 2000
 90
        0
280
     0
281
     1
  0
CLASS
  1
IMAGE
  2
AcDbRasterImage
  3
ISM
 90
      127
280
     0
281
     1
  0
CLASS
  1
OLE2FRAME
  2
AcDbOle2Frame
  3
AutoCAD 2000
 90
        0
280
     0
281
     1
  0
CLASS
  1
HATCH
  2
AcDbHatch
  3
AutoCAD 2000
 90
        0
280
     0
281
     1
  0
CLASS
  1
DICTIONARYVAR
  2
AcDbDictionaryVar
  3
AutoCAD 2000
 90
        0
280
     0
281
     0
  0
CLASS
  1
RASTERVARIABLES
  2
AcDbRasterVariables
  3
ISM
 90
        0
280
     0
281
     0
  0
CLASS
  1
IMAGEDEF
  2
AcDbRasterImageDef
  3
ISM
 90
        0
280
     0
281
     0
  0
CLASS
  1
IMAGEDEF_REACTOR
  2
AcDbRasterImageDefReactor
  3
ISM
 90
        1
280
     0
281
     0
  0
CLASS
  1
IDBUFFER
  2
AcDbIdBuffer
  3
AutoCAD 2000
 90
        0
280
     0
281
     0
  0
CLASS
  1
SPATIAL_FILTER
  2
AcDbSpatialFilter
  3
AutoCAD 2000
 90
        0
280
     0
281
     0
  0
CLASS
  1
XRECORD
  2
AcDbXrecord
  3
AutoCAD 2000
 90
        0
280
     0
281
     0
  0
CLASS
  1
SORTENTSTABLE
  2
AcDbSortentsTable
  3
AutoCAD 2000
 90
        0
280
     0
281
     0
  0
CLASS
  1
LAYER_INDEX
  2
AcDbLayerIndex
  3
AutoCAD 2000
 90
        0
280
     0
281
     0
  0
CLASS
  1
SPATIAL_INDEX
  2
AcDbSpatialIndex
  3
AutoCAD 2000
 90
        0
280
     0
281
     0
  0
CLASS
  1
OBJECT_PTR
  2
CAseDLPNTableRecord
  3
"ASE-LPNTableRecord"
 90
        1
280
     0
281
     0
  0
CLASS
  1
LAYOUT
  2
AcDbLayout
  3
AutoCAD 2000
 90
        0
280
     0
281
     0
  0
CLASS
  1
PLOTSETTINGS
  2
AcDbPlotSettings
  3
AutoCAD 2000
 90
        0
280
     0
281
     0
  0
CLASS
  1
ACDBDICTIONARYWDFLT
  2
AcDbDictionaryWithDefault
  3
AutoCAD 2000
 90
        0
280
     0
281
     0
  0
CLASS
  1
ACDBPLACEHOLDER
  2
AcDbPlaceHolder
  3
AutoCAD 2000
 90
        0
280
     0
281
     0
  0
ENDSEC
  0
SECTION
  2
TABLES
  0
TABLE
  2
VPORT
  5
7
100
AcDbSymbolTable
 70
     1
  0
VPORT
  5
15
100
AcDbSymbolTableRecord
100
AcDbViewportTableRecord
  2
*ACTIVE
 70
     0
 10
0.0
 20
0.0
 11
1.0
 21
1.0
 12
0.0
 22
0.0
 13
0.0
 23
0.0
 14
1.0
 24
1.0
 15
0.0
 25
0.0
 16
0.0
 26
0.0
 36
1.0
 17
0.0
 27
0.0
 37
0.0
 40
299.97
 41
1.732051
 42
50.0
 43
0.0
 44
0.0
 50
0.0
 51
0.0
 71
     0
 72
   100
 73
     1
 74
     1
 75
     0
 76
     0
 77
     0
 78
     0
281
     0
 65
     0
110
0.0
120
0.0
130
0.0
111
1.0
121
0.0
131
0.0
112
0.0
122
1.0
132
0.0
345
0
346
0
 79
     0
146
0.0
  0
ENDTAB
  0
TABLE
  2
LTYPE
  5
4
100
AcDbSymbolTable
 70
     5
  0
LTYPE
  5
11
100
AcDbSymbolTableRecord
100
AcDbLinetypeTableRecord
  2
BYBLOCK
 70
    64
  3

 72
    65
 73
     0
 40
0.0
  0
LTYPE
  5
12
100
AcDbSymbolTableRecord
100
AcDbLinetypeTableRecord
  2
BYLAYER
 70
    64
  3

 72
    65
 73
     0
 40
0.0
  0
LTYPE
  5
13
100
AcDbSymbolTableRecord
100
AcDbLinetypeTableRecord
  2
CONTINUOUS
 70
    64
  3
Solid line
 72
    65
 73
     0
 40
0.0
  0
LTYPE
  5
7E
100
AcDbSymbolTableRecord
100
AcDbLinetypeTableRecord
  2
CENTER
 70
    64
  3
Center ____ _ ____ _ ____ _ ____ _ ____ _ ____
 72
    65
 73
     4
 40
50.8
 49
31.75
 74
     0
 49
-6.35
 74
     0
 49
6.35
 74
     0
 49
-6.35
 74
     0
  0
LTYPE
  5
1EE
100
AcDbSymbolTableRecord
100
AcDbLinetypeTableRecord
  2
NON_PLOTING
 70
     0
  3
Solid line
 72
    65
 73
     0
 40
0.0
  0
ENDTAB
  0
TABLE
  2
LAYER
  5
2
100
AcDbSymbolTable
 70
     5
  0
LAYER
  5
14
100
AcDbSymbolTableRecord
100
AcDbLayerTableRecord
  2
0
 70
     0
 62
     7
  6
CONTINUOUS
290
     1
370
    -3
390
1D
  0
LAYER
  5
23
100
AcDbSymbolTableRecord
100
AcDbLayerTableRecord
  2
DEFPOINTS
 70
     0
 62
     7
  6
CONTINUOUS
290
     0
370
    -3
390
1D
  0
LAYER
  5
24
100
AcDbSymbolTableRecord
100
AcDbLayerTableRecord
  2
CLASS1
 70
     0
 62
     7
  6
CONTINUOUS
290
     1
370
    -3
390
1D
  0
LAYER
  5
25
100
AcDbSymbolTableRecord
100
AcDbLayerTableRecord
  2
SS
 70
     0
 62
     7
  6
CONTINUOUS
290
     1
370
    -3
390
1D
  0
LAYER
  5
26
100
AcDbSymbolTableRecord
100
AcDbLayerTableRecord
  2
SD
 70
     0
 62
     7
  6
CONTINUOUS
290
     1
370
    -3
390
1D
  0
ENDTAB
  0
TABLE
  2
STYLE
  5
3
100
AcDbSymbolTable
 70
     6
  0
STYLE
  5
17
100
AcDbSymbolTableRecord
100
AcDbTextStyleTableRecord
  2
MX_NOTE_STANDARD
 70
     0
 40
0.0
 41
1.0
 50
0.0
 71
     0
 42
2.5
  3
txt.shx
  4
extfont.shx
  0
STYLE
  5
36
100
AcDbSymbolTableRecord
100
AcDbTextStyleTableRecord
  2
MX_DIMTXSTY_2
 70
     0
 40
0.0
 41
1.3
 50
0.0
 71
     0
 42
2.5
  3
txt.shx
  4
extfont.shx
  0
STYLE
  5
60
100
AcDbSymbolTableRecord
100
AcDbTextStyleTableRecord
  2
MX_DIMTXSTY_3
 70
     0
 40
0.0
 41
1.2
 50
0.0
 71
     0
 42
2.5
  3
txt.shx
  4
extfont.shx
  0
STYLE
  5
77
100
AcDbSymbolTableRecord
100
AcDbTextStyleTableRecord
  2
MX_DIMTXSTY_4
 70
     0
 40
0.0
 41
1.1
 50
0.0
 71
     0
 42
2.5
  3
txt.shx
  4
extfont.shx
  0
STYLE
  5
13E
100
AcDbSymbolTableRecord
100
AcDbTextStyleTableRecord
  2
MX_DIMTXSTY_5
 70
     0
 40
0.0
 41
1.25
 50
0.0
 71
     0
 42
2.5
  3
txt.shx
  4
extfont.shx
  0
STYLE
  5
14C
100
AcDbSymbolTableRecord
100
AcDbTextStyleTableRecord
  2
MX_DIMTXSTY_6
 70
     0
 40
0.0
 41
1.15
 50
0.0
 71
     0
 42
2.5
  3
txt.shx
  4
extfont.shx
  0
ENDTAB
  0
TABLE
  2
VIEW
  5
5
100
AcDbSymbolTable
 70
     0
  0
ENDTAB
  0
TABLE
  2
UCS
  5
6
100
AcDbSymbolTable
 70
     0
  0
ENDTAB
  0
TABLE
  2
APPID
  5
8
100
AcDbSymbolTable
 70
     2
  0
APPID
  5
16
100
AcDbSymbolTableRecord
100
AcDbRegAppTableRecord
  2
ACAD
 70
     0
  0
APPID
  5
16C
100
AcDbSymbolTableRecord
100
AcDbRegAppTableRecord
  2
CONTENTBLOCKDESCRIPTION
 70
     0
  0
ENDTAB
  0
TABLE
  2
DIMSTYLE
  5
9
100
AcDbSymbolTable
 70
     1
100
AcDbDimStyleTable
 71
     0
  0
DIMSTYLE
105
18
100
AcDbSymbolTableRecord
100
AcDbDimStyleTableRecord
  2
MXDIMSTYLE
 70
     0
  3

  4

 40
1.0
 41
2.5
 42
1.5
 43
3.75
 44
1.5
 45
0.0
 46
0.0
 47
0.0
 48
0.0
 71
     0
 72
     0
 73
     0
 74
     0
 75
     0
 76
     0
 77
     1
 78
     8
 79
     0
140
2.5
141
2.5
142
0.0
143
0.03937
144
1.0
145
0.0
146
1.0
147
0.5
148
0.0
170
     0
171
     4
172
     1
173
     1
174
     0
175
     0
176
     0
177
     0
178
     0
179
     0
271
     2
272
     2
273
     2
274
     4
275
     0
276
     0
277
     2
278
    46
279
     0
280
     0
281
     0
282
     0
283
     0
284
     0
285
     0
286
     0
288
     0
289
     3
340
17
341
27
342
0
343
27
344
27
371
    -2
372
    -2
  0
ENDTAB
  0
TABLE
  2
BLOCK_RECORD
  5
1
100
AcDbSymbolTable
 70
     9
  0
BLOCK_RECORD
  5
A
100
AcDbSymbolTableRecord
100
AcDbBlockTableRecord
  2
*MODEL_SPACE
340
20
  0
BLOCK_RECORD
  5
B
100
AcDbSymbolTableRecord
100
AcDbBlockTableRecord
  2
*PAPER_SPACE
340
21
  0
BLOCK_RECORD
  5
27
100
AcDbSymbolTableRecord
100
AcDbBlockTableRecord
  2
_OPEN30
340
0
102
{BLKREFS
331
34
331
35
331
5E
331
5F
331
75
331
76
331
13C
331
13D
331
14A
331
14B
331
15B
331
15C
102
}
  0
BLOCK_RECORD
  5
2F
100
AcDbSymbolTableRecord
100
AcDbBlockTableRecord
  2
*D1
340
0
  0
BLOCK_RECORD
  5
59
100
AcDbSymbolTableRecord
100
AcDbBlockTableRecord
  2
*D2
340
0
  0
BLOCK_RECORD
  5
6D
100
AcDbSymbolTableRecord
100
AcDbBlockTableRecord
  2
*D3
340
0
  0
BLOCK_RECORD
  5
137
100
AcDbSymbolTableRecord
100
AcDbBlockTableRecord
  2
*D4
340
0
  0
BLOCK_RECORD
  5
145
100
AcDbSymbolTableRecord
100
AcDbBlockTableRecord
  2
*D5
340
0
  0
BLOCK_RECORD
  5
153
100
AcDbSymbolTableRecord
100
AcDbBlockTableRecord
  2
*D6
340
0
  0
BLOCK_RECORD
  5
16B
100
AcDbSymbolTableRecord
100
AcDbBlockTableRecord
  2
$KAKUDAI-2
340
0
102
{BLKREFS
331
1BB
102
}
1001
CONTENTBLOCKDESCRIPTION
1071
        0
1000
ICAD/MX UserSymbol^M^Jtable_name:KAKUDAI^M^Jsymbol_no.:  2
  0
BLOCK_RECORD
  5
1BC
100
AcDbSymbolTableRecord
100
AcDbBlockTableRecord
  2
$KAKUDAI-3
340
0
102
{BLKREFS
331
1C9
102
}
1001
CONTENTBLOCKDESCRIPTION
1071
        0
1000
ICAD/MX UserSymbol^M^Jtable_name:KAKUDAI^M^Jsymbol_no.:  3
  0
ENDTAB
  0
ENDSEC
  0
SECTION
  2
BLOCKS
  0
BLOCK
  5
D
100
AcDbEntity
  8
0
390
0
100
AcDbBlockBegin
  2
*MODEL_SPACE
 70
     0
 10
0.0
 20
0.0
 30
0.0
  3
*MODEL_SPACE
  1

  0
ENDBLK
  5
E
100
AcDbEntity
  8
0
390
0
100
AcDbBlockEnd
  0
BLOCK
  5
F
100
AcDbEntity
 67
     1
  8
0
390
0
100
AcDbBlockBegin
  2
*PAPER_SPACE
 70
     0
 10
0.0
 20
0.0
 30
0.0
  3
*PAPER_SPACE
  1

  0
ENDBLK
  5
10
100
AcDbEntity
 67
     1
  8
0
390
0
100
AcDbBlockEnd
  0
BLOCK
  5
28
100
AcDbEntity
  8
0
370
    -2
390
0
  6
ByBlock
 62
     0
100
AcDbBlockBegin
  2
_OPEN30
 70
     2
 10
0.0
 20
0.0
 30
0.0
  3
_OPEN30
  1

  0
LINE
  5
29
100
AcDbEntity
  8
0
370
    -2
390
0
  6
ByBlock
 62
     0
100
AcDbLine
 10
-1.0
 20
0.267949
 30
0.0
 11
0.0
 21
0.0
 31
0.0
  0
LINE
  5
2A
100
AcDbEntity
  8
0
370
    -2
390
0
  6
ByBlock
 62
     0
100
AcDbLine
 10
0.0
 20
0.0
 30
0.0
 11
-1.0
 21
-0.267949
 31
0.0
  0
LINE
  5
2B
100
AcDbEntity
  8
0
370
    -2
390
0
  6
ByBlock
 62
     0
100
AcDbLine
 10
0.0
 20
0.0
 30
0.0
 11
-1.0
 21
0.0
 31
0.0
  0
ENDBLK
  5
2C
100
AcDbEntity
  8
0
370
    -2
390
0
  6
ByBlock
 62
     0
100
AcDbBlockEnd
  0
BLOCK
  5
30
100
AcDbEntity
  8
0
370
    -2
390
0
  6
ByBlock
 62
     0
100
AcDbBlockBegin
  2
*D1
 70
     1
 10
0.0
 20
0.0
 30
0.0
  3
*D1
  1

  0
LINE
  5
31
100
AcDbEntity
  8
0
390
0
  6
CONTINUOUS
 62
   143
100
AcDbLine
 10
62.5
 20
-30.0
 30
0.0
 11
-30.0
 21
-30.0
 31
0.0
  0
LINE
  5
32
100
AcDbEntity
  8
0
390
0
  6
CONTINUOUS
 62
   143
100
AcDbLine
 10
62.5
 20
-0.145905
 30
0.0
 11
62.5
 21
-31.5
 31
0.0
  0
LINE
  5
33
100
AcDbEntity
  8
0
390
0
  6
CONTINUOUS
 62
   143
100
AcDbLine
 10
-30.0
 20
-8.75
 30
0.0
 11
-30.0
 21
-31.5
 31
0.0
  0
INSERT
  5
34
100
AcDbEntity
  8
0
390
0
  6
CONTINUOUS
 62
   143
100
AcDbBlockReference
  2
_OPEN30
 10
62.5
 20
-30.0
 30
0.0
 41
2.77
 42
2.77
 43
2.77
  0
INSERT
  5
35
100
AcDbEntity
  8
0
390
0
  6
CONTINUOUS
 62
   143
100
AcDbBlockReference
  2
_OPEN30
 10
-30.0
 20
-30.0
 30
0.0
 41
2.77
 42
2.77
 43
2.77
 50
180.0
  0
MTEXT
  5
37
100
AcDbEntity
  8
0
390
0
  6
CONTINUOUS
 62
   143
100
AcDbMText
 10
16.25
 20
-28.25
 30
0.0
 40
2.5
 41
0.0
 71
     5
 72
     1
  1
\A1;(92.5)
  7
MX_DIMTXSTY_2
 11
1.0
 21
0.0
 31
0.0
 73
     1
 44
0.96
  0
POINT
  5
38
100
AcDbEntity
  8
DEFPOINTS
390
0
  6
CONTINUOUS
 62
     0
100
AcDbPoint
 10
62.5
 20
1.354095
 30
0.0
  0
POINT
  5
39
100
AcDbEntity
  8
DEFPOINTS
390
0
  6
CONTINUOUS
 62
     0
100
AcDbPoint
 10
-30.0
 20
-7.25
 30
0.0
  0
POINT
  5
3A
100
AcDbEntity
  8
DEFPOINTS
390
0
  6
CONTINUOUS
 62
     0
100
AcDbPoint
 10
-30.0
 20
-30.0
 30
0.0
  0
ENDBLK
  5
3B
100
AcDbEntity
  8
0
370
    -2
390
0
  6
ByBlock
 62
     0
100
AcDbBlockEnd
  0
BLOCK
  5
5A
100
AcDbEntity
  8
0
370
    -2
390
0
  6
ByBlock
 62
     0
100
AcDbBlockBegin
  2
*D2
 70
     1
 10
0.0
 20
0.0
 30
0.0
  3
*D2
  1

  0
LINE
  5
5B
100
AcDbEntity
  8
0
390
0
  6
CONTINUOUS
 62
   143
100
AcDbLine
 10
85.0
 20
40.0
 30
0.0
 11
85.0
 21
-20.000008
 31
0.0
  0
LINE
  5
5C
100
AcDbEntity
  8
0
390
0
  6
CONTINUOUS
 62
   143
100
AcDbLine
 10
47.000015
 20
40.0
 30
0.0
 11
86.5
 21
40.0
 31
0.0
  0
LINE
  5
5D
100
AcDbEntity
  8
0
390
0
  6
CONTINUOUS
 62
   143
100
AcDbLine
 10
47.0
 20
-20.000008
 30
0.0
 11
86.5
 21
-20.000008
 31
0.0
  0
INSERT
  5
5E
100
AcDbEntity
  8
0
390
0
  6
CONTINUOUS
 62
   143
100
AcDbBlockReference
  2
_OPEN30
 10
85.0
 20
40.0
 30
0.0
 41
2.77
 42
2.77
 43
2.77
 50
90.0
  0
INSERT
  5
5F
100
AcDbEntity
  8
0
390
0
  6
CONTINUOUS
 62
   143
100
AcDbBlockReference
  2
_OPEN30
 10
85.0
 20
-20.000008
 30
0.0
 41
2.77
 42
2.77
 43
2.77
 50
270.0
  0
MTEXT
  5
61
100
AcDbEntity
  8
0
390
0
  6
CONTINUOUS
 62
   143
100
AcDbMText
 10
83.25
 20
9.999996
 30
0.0
 40
2.5
 41
0.0
 71
     5
 72
     1
  1
\A1;\U+220560.0
  7
MX_DIMTXSTY_3
 11
0.0
 21
1.0
 31
0.0
 73
     1
 44
0.96
  0
POINT
  5
62
100
AcDbEntity
  8
DEFPOINTS
390
0
  6
CONTINUOUS
 62
     0
100
AcDbPoint
 10
45.500015
 20
40.0
 30
0.0
  0
POINT
  5
63
100
AcDbEntity
  8
DEFPOINTS
390
0
  6
CONTINUOUS
 62
     0
100
AcDbPoint
 10
45.5
 20
-20.000008
 30
0.0
  0
POINT
  5
64
100
AcDbEntity
  8
DEFPOINTS
390
0
  6
CONTINUOUS
 62
     0
100
AcDbPoint
 10
85.0
 20
-20.000008
 30
0.0
  0
ENDBLK
  5
65
100
AcDbEntity
  8
0
370
    -2
390
0
  6
ByBlock
 62
     0
100
AcDbBlockEnd
  0
BLOCK
  5
6E
100
AcDbEntity
  8
0
370
    -2
390
0
  6
ByBlock
 62
     0
100
AcDbBlockBegin
  2
*D3
 70
     1
 10
0.0
 20
0.0
 30
0.0
  3
*D3
  1

  0
LINE
  5
6F
100
AcDbEntity
  8
0
390
0
  6
CONTINUOUS
 62
   143
100
AcDbLine
 10
-36.5
 20
50.0
 30
0.0
 11
-23.5
 21
50.0
 31
0.0
  0
LINE
  5
70
100
AcDbEntity
  8
0
390
0
  6
CONTINUOUS
 62
   143
100
AcDbLine
 10
-23.5
 20
50.0
 30
0.0
 11
-2.044561
 21
50.0
 31
0.0
  0
LINE
  5
71
100
AcDbEntity
  8
0
390
0
  6
CONTINUOUS
 62
   143
100
AcDbLine
 10
-36.5
 20
36.499996
 30
0.0
 11
-36.5
 21
51.5
 31
0.0
  0
LINE
  5
72
100
AcDbEntity
  8
0
390
0
  6
CONTINUOUS
 62
   143
100
AcDbLine
 10
-23.5
 20
36.499996
 30
0.0
 11
-23.5
 21
51.5
 31
0.0
  0
LINE
  5
73
100
AcDbEntity
  8
0
390
0
  6
CONTINUOUS
 62
   143
100
AcDbLine
 10
-36.5
 20
50.0
 30
0.0
 11
-42.85
 21
50.0
 31
0.0
  0
LINE
  5
74
100
AcDbEntity
  8
0
390
0
  6
CONTINUOUS
 62
   143
100
AcDbLine
 10
-23.5
 20
50.0
 30
0.0
 11
-17.15
 21
50.0
 31
0.0
  0
INSERT
  5
75
100
AcDbEntity
  8
0
390
0
  6
CONTINUOUS
 62
   143
100
AcDbBlockReference
  2
_OPEN30
 10
-36.5
 20
50.0
 30
0.0
 41
2.77
 42
2.77
 43
2.77
  0
INSERT
  5
76
100
AcDbEntity
  8
0
390
0
  6
CONTINUOUS
 62
   143
100
AcDbBlockReference
  2
_OPEN30
 10
-23.5
 20
50.0
 30
0.0
 41
2.77
 42
2.77
 43
2.77
 50
180.0
  0
MTEXT
  5
78
100
AcDbEntity
  8
0
390
0
  6
CONTINUOUS
 62
   143
100
AcDbMText
 10
-10.794561
 20
51.75
 30
0.0
 40
2.5
 41
0.0
 71
     5
 72
     1
  1
\A1;内径\U+220513.0
  7
MX_DIMTXSTY_4
 73
     1
 44
0.96
  0
POINT
  5
79
100
AcDbEntity
  8
DEFPOINTS
390
0
  6
CONTINUOUS
 62
     0
100
AcDbPoint
 10
-36.5
 20
34.999996
 30
0.0
  0
POINT
  5
7A
100
AcDbEntity
  8
DEFPOINTS
390
0
  6
CONTINUOUS
 62
     0
100
AcDbPoint
 10
-23.5
 20
34.999996
 30
0.0
  0
POINT
  5
7B
100
AcDbEntity
  8
DEFPOINTS
390
0
  6
CONTINUOUS
 62
     0
100
AcDbPoint
 10
-23.5
 20
50.0
 30
0.0
  0
ENDBLK
  5
7C
100
AcDbEntity
  8
0
370
    -2
390
0
  6
ByBlock
 62
     0
100
AcDbBlockEnd
  0
BLOCK
  5
138
100
AcDbEntity
  8
0
370
    -2
390
0
  6
ByBlock
 62
     0
100
AcDbBlockBegin
  2
*D4
 70
     1
 10
0.0
 20
0.0
 30
0.0
  3
*D4
  1

  0
LINE
  5
139
100
AcDbEntity
  8
0
390
0
  6
CONTINUOUS
 62
   143
100
AcDbLine
 10
-85.0
 20
10.0
 30
0.0
 11
-85.0
 21
35.0
 31
0.0
  0
LINE
  5
13A
100
AcDbEntity
  8
0
390
0
  6
CONTINUOUS
 62
   143
100
AcDbLine
 10
-78.988781
 20
10.0
 30
0.0
 11
-86.5
 21
10.0
 31
0.0
  0
LINE
  5
13B
100
AcDbEntity
  8
0
390
0
  6
CONTINUOUS
 62
   143
100
AcDbLine
 10
-40.815498
 20
35.0
 30
0.0
 11
-86.5
 21
35.0
 31
0.0
  0
INSERT
  5
13C
100
AcDbEntity
  8
0
390
0
  6
CONTINUOUS
 62
   143
100
AcDbBlockReference
  2
_OPEN30
 10
-85.0
 20
10.0
 30
0.0
 41
2.77
 42
2.77
 43
2.77
 50
270.0
  0
INSERT
  5
13D
100
AcDbEntity
  8
0
390
0
  6
CONTINUOUS
 62
   143
100
AcDbBlockReference
  2
_OPEN30
 10
-85.0
 20
35.0
 30
0.0
 41
2.77
 42
2.77
 43
2.77
 50
90.0
  0
MTEXT
  5
13F
100
AcDbEntity
  8
0
390
0
  6
CONTINUOUS
 62
   143
100
AcDbMText
 10
-86.75
 20
22.5
 30
0.0
 40
2.5
 41
0.0
 71
     5
 72
     1
  1
\A1;25.0
  7
MX_DIMTXSTY_5
 11
0.0
 21
1.0
 31
0.0
 73
     1
 44
0.96
  0
POINT
  5
140
100
AcDbEntity
  8
DEFPOINTS
390
0
  6
CONTINUOUS
 62
     0
100
AcDbPoint
 10
-77.488781
 20
10.0
 30
0.0
  0
POINT
  5
141
100
AcDbEntity
  8
DEFPOINTS
390
0
  6
CONTINUOUS
 62
     0
100
AcDbPoint
 10
-39.315498
 20
35.0
 30
0.0
  0
POINT
  5
142
100
AcDbEntity
  8
DEFPOINTS
390
0
  6
CONTINUOUS
 62
     0
100
AcDbPoint
 10
-85.0
 20
35.0
 30
0.0
  0
ENDBLK
  5
143
100
AcDbEntity
  8
0
370
    -2
390
0
  6
ByBlock
 62
     0
100
AcDbBlockEnd
  0
BLOCK
  5
146
100
AcDbEntity
  8
0
370
    -2
390
0
  6
ByBlock
 62
     0
100
AcDbBlockBegin
  2
*D5
 70
     1
 10
0.0
 20
0.0
 30
0.0
  3
*D5
  1

  0
LINE
  5
147
100
AcDbEntity
  8
0
390
0
  6
CONTINUOUS
 62
   143
100
AcDbLine
 10
-30.0
 20
-30.0
 30
0.0
 11
-72.488782
 21
-30.0
 31
0.0
  0
LINE
  5
148
100
AcDbEntity
  8
0
390
0
  6
CONTINUOUS
 62
   143
100
AcDbLine
 10
-30.0
 20
-8.75
 30
0.0
 11
-30.0
 21
-31.5
 31
0.0
  0
LINE
  5
149
100
AcDbEntity
  8
0
390
0
  6
CONTINUOUS
 62
   143
100
AcDbLine
 10
-72.488782
 20
2.0
 30
0.0
 11
-72.488782
 21
-31.5
 31
0.0
  0
INSERT
  5
14A
100
AcDbEntity
  8
0
390
0
  6
CONTINUOUS
 62
   143
100
AcDbBlockReference
  2
_OPEN30
 10
-30.0
 20
-30.0
 30
0.0
 41
2.77
 42
2.77
 43
2.77
  0
INSERT
  5
14B
100
AcDbEntity
  8
0
390
0
  6
CONTINUOUS
 62
   143
100
AcDbBlockReference
  2
_OPEN30
 10
-72.488782
 20
-30.0
 30
0.0
 41
2.77
 42
2.77
 43
2.77
 50
180.0
  0
MTEXT
  5
14D
100
AcDbEntity
  8
0
390
0
  6
CONTINUOUS
 62
   143
100
AcDbMText
 10
-51.24439
 20
-28.25
 30
0.0
 40
2.5
 41
0.0
 71
     5
 72
     1
  1
\A1;(最大46.5)
  7
MX_DIMTXSTY_6
 11
1.0
 21
0.0
 31
0.0
 73
     1
 44
0.96
  0
POINT
  5
14E
100
AcDbEntity
  8
DEFPOINTS
390
0
  6
CONTINUOUS
 62
     0
100
AcDbPoint
 10
-30.0
 20
-7.25
 30
0.0
  0
POINT
  5
14F
100
AcDbEntity
  8
DEFPOINTS
390
0
  6
CONTINUOUS
 62
     0
100
AcDbPoint
 10
-72.488782
 20
3.5
 30
0.0
  0
POINT
  5
150
100
AcDbEntity
  8
DEFPOINTS
390
0
  6
CONTINUOUS
 62
     0
100
AcDbPoint
 10
-72.488782
 20
-30.0
 30
0.0
  0
ENDBLK
  5
151
100
AcDbEntity
  8
0
370
    -2
390
0
  6
ByBlock
 62
     0
100
AcDbBlockEnd
  0
BLOCK
  5
154
100
AcDbEntity
  8
0
370
    -2
390
0
  6
ByBlock
 62
     0
100
AcDbBlockBegin
  2
*D6
 70
     1
 10
0.0
 20
0.0
 30
0.0
  3
*D6
  1

  0
LINE
  5
155
100
AcDbEntity
  8
0
390
0
  6
CONTINUOUS
 62
   143
100
AcDbLine
 10
5.0
 20
24.722432
 30
0.0
 11
5.0
 21
-4.722432
 31
0.0
  0
LINE
  5
156
100
AcDbEntity
  8
0
390
0
  6
CONTINUOUS
 62
   143
100
AcDbLine
 10
5.0
 20
48.748921
 30
0.0
 11
5.0
 21
24.722432
 31
0.0
  0
LINE
  5
157
100
AcDbEntity
  8
0
390
0
  6
CONTINUOUS
 62
   143
100
AcDbLine
 10
-4.5
 20
24.722432
 30
0.0
 11
6.5
 21
24.722432
 31
0.0
  0
LINE
  5
158
100
AcDbEntity
  8
0
390
0
  6
CONTINUOUS
 62
   143
100
AcDbLine
 10
-4.5
 20
-4.722432
 30
0.0
 11
6.5
 21
-4.722432
 31
0.0
  0
LINE
  5
159
100
AcDbEntity
  8
0
390
0
  6
CONTINUOUS
 62
   143
100
AcDbLine
 10
5.0
 20
24.722432
 30
0.0
 11
5.0
 21
31.072432
 31
0.0
  0
LINE
  5
15A
100
AcDbEntity
  8
0
390
0
  6
CONTINUOUS
 62
   143
100
AcDbLine
 10
5.0
 20
-4.722432
 30
0.0
 11
5.0
 21
-11.072432
 31
0.0
  0
INSERT
  5
15B
100
AcDbEntity
  8
0
390
0
  6
CONTINUOUS
 62
   143
100
AcDbBlockReference
  2
_OPEN30
 10
5.0
 20
24.722432
 30
0.0
 41
2.77
 42
2.77
 43
2.77
 50
270.0
  0
INSERT
  5
15C
100
AcDbEntity
  8
0
390
0
  6
CONTINUOUS
 62
   143
100
AcDbBlockReference
  2
_OPEN30
 10
5.0
 20
-4.722432
 30
0.0
 41
2.77
 42
2.77
 43
2.77
 50
90.0
  0
MTEXT
  5
15D
100
AcDbEntity
  8
0
390
0
  6
CONTINUOUS
 62
   143
100
AcDbMText
 10
3.25
 20
38.748921
 30
0.0
 40
2.5
 41
0.0
 71
     5
 72
     1
  1
\A1;六角対辺25.5
 11
0.0
 21
1.0
 31
0.0
 73
     1
 44
0.96
  0
POINT
  5
15E
100
AcDbEntity
  8
DEFPOINTS
390
0
  6
CONTINUOUS
 62
     0
100
AcDbPoint
 10
-6.0
 20
24.722432
 30
0.0
  0
POINT
  5
15F
100
AcDbEntity
  8
DEFPOINTS
390
0
  6
CONTINUOUS
 62
     0
100
AcDbPoint
 10
-6.0
 20
-4.722432
 30
0.0
  0
POINT
  5
160
100
AcDbEntity
  8
DEFPOINTS
390
0
  6
CONTINUOUS
 62
     0
100
AcDbPoint
 10
5.0
 20
-4.722432
 30
0.0
  0
ENDBLK
  5
161
100
AcDbEntity
  8
0
370
    -2
390
0
  6
ByBlock
 62
     0
100
AcDbBlockEnd
  0
BLOCK
  5
16D
100
AcDbEntity
  8
0
370
    -2
390
0
  6
ByBlock
 62
     0
100
AcDbBlockBegin
  2
$KAKUDAI-2
 70
     0
 10
0.0
 20
0.0
 30
0.0
  3
$KAKUDAI-2
  1

  0
ARC
  5
16E
100
AcDbEntity
  8
0
390
0
  6
CONTINUOUS
 62
     0
100
AcDbCircle
 10
29.31842
 20
1.863708
 30
0.0
 40
0.591628
100
AcDbArc
 50
270.000025
 51
354.40127
  0
ARC
  5
16F
100
AcDbEntity
  8
0
390
0
  6
CONTINUOUS
 62
     0
100
AcDbCircle
 10
29.318405
 20
2.573524
 30
0.0
 40
0.591628
100
AcDbArc
 50
5.59873
 51
89.999982
  0
ARC
  5
170
100
AcDbEntity
  8
0
390
0
  6
CONTINUOUS
 62
     0
100
AcDbCircle
 10
25.69725
 20
2.218666
 30
0.0
 40
4.230142
100
AcDbArc
 50
354.401273
 51
5.598727
  0
ARC
  5
171
100
AcDbEntity
  8
0
390
0
  6
CONTINUOUS
 62
     0
100
AcDbCircle
 10
29.621689
 20
1.479218
 30
0.0
 40
1.479071
100
AcDbArc
 50
270.000025
 51
349.328068
  0
ARC
  5
172
100
AcDbEntity
  8
0
390
0
  6
CONTINUOUS
 62
     0
100
AcDbCircle
 10
29.621689
 20
2.958115
 30
0.0
 40
1.479071
100
AcDbArc
 50
10.671932
 51
89.999982
  0
ARC
  5
173
100
AcDbEntity
  8
0
390
0
  6
CONTINUOUS
 62
     0
100
AcDbCircle
 10
25.69725
 20
2.218666
 30
0.0
 40
5.472562
100
AcDbArc
 50
349.328068
 51
10.671932
  0
ARC
  5
174
100
AcDbEntity
  8
0
390
0
  6
CONTINUOUS
 62
     0
100
AcDbCircle
 10
22.88707
 20
1.622192
 30
0.0
 40
0.591628
100
AcDbArc
 50
276.999029
 51
0.0
  0
ARC
  5
175
100
AcDbEntity
  8
0
390
0
  6
CONTINUOUS
 62
     0
100
AcDbCircle
 10
21.112137
 20
1.622177
 30
0.0
 40
0.591628
100
AcDbArc
 50
179.999964
 51
263.000915
  0
ARC
  5
176
100
AcDbEntity
  8
0
390
0
  6
CONTINUOUS
 62
     0
100
AcDbCircle
 10
21.999603
 20
8.85083
 30
0.0
 40
7.874568
100
AcDbArc
 50
263.000966
 51
276.999015
  0
ARC
  5
177
100
AcDbEntity
  8
0
390
0
  6
CONTINUOUS
 62
     0
100
AcDbCircle
 10
23.271584
 20
1.28949
 30
0.0
 40
1.479071
100
AcDbArc
 50
279.549258
 51
0.0
  0
ARC
  5
178
100
AcDbEntity
  8
0
390
0
  6
CONTINUOUS
 62
     0
100
AcDbCircle
 10
20.727631
 20
1.28949
 30
0.0
 40
1.479071
100
AcDbArc
 50
179.999964
 51
260.450713
  0
ARC
  5
179
100
AcDbEntity
  8
0
390
0
  6
CONTINUOUS
 62
     0
100
AcDbCircle
 10
21.999603
 20
8.85083
 30
0.0
 40
9.146571
100
AcDbArc
 50
260.450737
 51
279.54923
  0
LINE
  5
17A
100
AcDbEntity
  8
0
390
0
  6
CONTINUOUS
 62
     0
100
AcDbLine
 10
39.999893
 20
4.437317
 30
0.0
 11
39.999893
 21
0.000015
 31
0.0
  0
LINE
  5
17B
100
AcDbEntity
  8
0
390
0
  6
CONTINUOUS
 62
     0
100
AcDbLine
 10
38.72789
 20
4.437317
 30
0.0
 11
38.72789
 21
0.000015
 31
0.0
  0
LINE
  5
17C
100
AcDbEntity
  8
0
390
0
  6
CONTINUOUS
 62
     0
100
AcDbLine
 10
12.752607
 20
-0.000183
 30
0.0
 11
10.238149
 21
4.437112
 31
0.0
  0
LINE
  5
17D
100
AcDbEntity
  8
0
390
0
  6
CONTINUOUS
 62
     0
100
AcDbLine
 10
11.290825
 20
0.0
 30
0.0
 11
12.752815
 21
0.0
 31
0.0
  0
LINE
  5
17E
100
AcDbEntity
  8
0
390
0
  6
CONTINUOUS
 62
     0
100
AcDbLine
 10
11.290678
 20
-0.000035
 30
0.0
 11
10.871566
 21
0.739584
 31
0.0
  0
LINE
  5
17F
100
AcDbEntity
  8
0
390
0
  6
CONTINUOUS
 62
     0
100
AcDbLine
 10
10.368869
 20
1.627127
 30
0.0
 11
9.328812
 21
3.462514
 31
0.0
  0
LINE
  5
180
100
AcDbEntity
  8
0
390
0
  6
CONTINUOUS
 62
     0
100
AcDbLine
 10
8.289557
 20
1.626387
 30
0.0
 11
9.329624
 21
3.46183
 31
0.0
  0
LINE
  5
181
100
AcDbEntity
  8
0
390
0
  6
CONTINUOUS
 62
     0
100
AcDbLine
 10
8.288605
 20
1.627098
 30
0.0
 11
10.368835
 21
1.627098
 31
0.0
  0
LINE
  5
182
100
AcDbEntity
  8
0
390
0
  6
CONTINUOUS
 62
     0
100
AcDbLine
 10
7.785843
 20
0.739464
 30
0.0
 11
10.871651
 21
0.739464
 31
0.0
  0
LINE
  5
183
100
AcDbEntity
  8
0
390
0
  6
CONTINUOUS
 62
     0
100
AcDbLine
 10
5.904288
 20
0.000176
 30
0.0
 11
8.41872
 21
4.437407
 31
0.0
  0
LINE
  5
184
100
AcDbEntity
  8
0
390
0
  6
CONTINUOUS
 62
     0
100
AcDbLine
 10
7.366972
 20
-0.000121
 30
0.0
 11
7.786036
 21
0.739421
 31
0.0
  0
LINE
  5
185
100
AcDbEntity
  8
0
390
0
  6
CONTINUOUS
 62
     0
100
AcDbLine
 10
5.904747
 20
0.0
 30
0.0
 11
7.366676
 21
0.0
 31
0.0
  0
LINE
  5
186
100
AcDbEntity
  8
0
390
0
  6
CONTINUOUS
 62
     0
100
AcDbLine
 10
8.419144
 20
4.437302
 30
0.0
 11
10.238426
 21
4.437302
 31
0.0
  0
LINE
  5
187
100
AcDbEntity
  8
0
390
0
  6
CONTINUOUS
 62
     0
100
AcDbLine
 10
26.821381
 20
3.16539
 30
0.0
 11
26.821381
 21
1.27224
 31
0.0
  0
LINE
  5
188
100
AcDbEntity
  8
0
390
0
  6
CONTINUOUS
 62
     0
100
AcDbLine
 10
25.549355
 20
4.437317
 30
0.0
 11
25.549355
 21
0.000015
 31
0.0
  0
LINE
  5
189
100
AcDbEntity
  8
0
390
0
  6
CONTINUOUS
 62
     0
100
AcDbLine
 10
26.821388
 20
3.1651
 30
0.0
 11
29.318481
 21
3.1651
 31
0.0
  0
LINE
  5
18A
100
AcDbEntity
  8
0
390
0
  6
CONTINUOUS
 62
     0
100
AcDbLine
 10
26.821388
 20
1.271919
 30
0.0
 11
29.318481
 21
1.271919
 31
0.0
  0
LINE
  5
18B
100
AcDbEntity
  8
0
390
0
  6
CONTINUOUS
 62
     0
100
AcDbLine
 10
38.727936
 20
0.000015
 30
0.0
 11
39.999947
 21
0.000015
 31
0.0
  0
LINE
  5
18C
100
AcDbEntity
  8
0
390
0
  6
CONTINUOUS
 62
     0
100
AcDbLine
 10
38.727936
 20
4.437317
 30
0.0
 11
39.999947
 21
4.437317
 31
0.0
  0
LINE
  5
18D
100
AcDbEntity
  8
0
390
0
  6
CONTINUOUS
 62
     0
100
AcDbLine
 10
23.478714
 20
4.437302
 30
0.0
 11
24.750725
 21
4.437302
 31
0.0
  0
LINE
  5
18E
100
AcDbEntity
  8
0
390
0
  6
CONTINUOUS
 62
     0
100
AcDbLine
 10
25.549408
 20
4.437302
 30
0.0
 11
29.621742
 21
4.437302
 31
0.0
  0
LINE
  5
18F
100
AcDbEntity
  8
0
390
0
  6
CONTINUOUS
 62
     0
100
AcDbLine
 10
24.750397
 20
4.437317
 30
0.0
 11
24.750397
 21
1.28949
 31
0.0
  0
LINE
  5
190
100
AcDbEntity
  8
0
390
0
  6
CONTINUOUS
 62
     0
100
AcDbLine
 10
23.478989
 20
4.437309
 30
0.0
 11
23.478989
 21
1.622185
 31
0.0
  0
LINE
  5
191
100
AcDbEntity
  8
0
390
0
  6
CONTINUOUS
 62
     0
100
AcDbLine
 10
19.248566
 20
4.437302
 30
0.0
 11
19.248566
 21
1.28949
 31
0.0
  0
LINE
  5
192
100
AcDbEntity
  8
0
390
0
  6
CONTINUOUS
 62
     0
100
AcDbLine
 10
20.5205
 20
4.437302
 30
0.0
 11
20.5205
 21
1.622192
 31
0.0
  0
LINE
  5
193
100
AcDbEntity
  8
0
390
0
  6
CONTINUOUS
 62
     0
100
AcDbLine
 10
3.786705
 20
4.437302
 30
0.0
 11
5.608849
 21
4.437302
 31
0.0
  0
LINE
  5
194
100
AcDbEntity
  8
0
390
0
  6
CONTINUOUS
 62
     0
100
AcDbLine
 10
3.228285
 20
2.219162
 30
0.0
 11
5.608237
 21
4.437769
 31
0.0
  0
LINE
  5
195
100
AcDbEntity
  8
0
390
0
  6
CONTINUOUS
 62
     0
100
AcDbLine
 10
3.228971
 20
2.218703
 30
0.0
 11
5.608881
 21
0.000134
 31
0.0
  0
LINE
  5
196
100
AcDbEntity
  8
0
390
0
  6
CONTINUOUS
 62
     0
100
AcDbLine
 10
3.786705
 20
0.000015
 30
0.0
 11
5.608849
 21
0.000015
 31
0.0
  0
LINE
  5
197
100
AcDbEntity
  8
0
390
0
  6
CONTINUOUS
 62
     0
100
AcDbLine
 10
2.041563
 20
1.627004
 30
0.0
 11
3.786919
 21
-0.000054
 31
0.0
  0
LINE
  5
198
100
AcDbEntity
  8
0
390
0
  6
CONTINUOUS
 62
     0
100
AcDbLine
 10
1.242905
 20
1.627098
 30
0.0
 11
2.041748
 21
1.627098
 31
0.0
  0
LINE
  5
199
100
AcDbEntity
  8
0
390
0
  6
CONTINUOUS
 62
     0
100
AcDbLine
 10
2.041729
 20
2.809854
 30
0.0
 11
3.78704
 21
4.436829
 31
0.0
  0
LINE
  5
19A
100
AcDbEntity
  8
0
390
0
  6
CONTINUOUS
 62
     0
100
AcDbLine
 10
1.242905
 20
2.810196
 30
0.0
 11
2.041748
 21
2.810196
 31
0.0
  0
LINE
  5
19B
100
AcDbEntity
  8
0
390
0
  6
CONTINUOUS
 62
     0
100
AcDbLine
 10
1.242874
 20
4.437302
 30
0.0
 11
1.242874
 21
2.810211
 31
0.0
  0
LINE
  5
19C
100
AcDbEntity
  8
0
390
0
  6
CONTINUOUS
 62
     0
100
AcDbLine
 10
0.000366
 20
4.437302
 30
0.0
 11
1.242905
 21
4.437302
 31
0.0
  0
LINE
  5
19D
100
AcDbEntity
  8
0
390
0
  6
CONTINUOUS
 62
     0
100
AcDbLine
 10
0.0
 20
4.437302
 30
0.0
 11
0.0
 21
0.000015
 31
0.0
  0
LINE
  5
19E
100
AcDbEntity
  8
0
390
0
  6
CONTINUOUS
 62
     0
100
AcDbLine
 10
1.243866
 20
1.627106
 30
0.0
 11
1.243866
 21
0.0
 31
0.0
  0
LINE
  5
19F
100
AcDbEntity
  8
0
390
0
  6
CONTINUOUS
 62
     0
100
AcDbLine
 10
0.000366
 20
0.0
 30
0.0
 11
1.242905
 21
0.0
 31
0.0
  0
LINE
  5
1A0
100
AcDbEntity
  8
0
390
0
  6
CONTINUOUS
 62
     0
100
AcDbLine
 10
25.549408
 20
0.000015
 30
0.0
 11
29.621742
 21
0.000015
 31
0.0
  0
LINE
  5
1A1
100
AcDbEntity
  8
0
390
0
  6
CONTINUOUS
 62
     0
100
AcDbLine
 10
19.248573
 20
4.437302
 30
0.0
 11
20.520576
 21
4.437302
 31
0.0
  0
LINE
  5
1A2
100
AcDbEntity
  8
0
390
0
  6
CONTINUOUS
 62
     0
100
AcDbLine
 10
36.674271
 20
0.000015
 30
0.0
 11
38.136307
 21
0.000015
 31
0.0
  0
LINE
  5
1A3
100
AcDbEntity
  8
0
390
0
  6
CONTINUOUS
 62
     0
100
AcDbLine
 10
31.288223
 20
0.0
 30
0.0
 11
32.750244
 21
0.0
 31
0.0
  0
LINE
  5
1A4
100
AcDbEntity
  8
0
390
0
  6
CONTINUOUS
 62
     0
100
AcDbLine
 10
33.802635
 20
4.437317
 30
0.0
 11
35.621895
 21
4.437317
 31
0.0
  0
LINE
  5
1A5
100
AcDbEntity
  8
0
390
0
  6
CONTINUOUS
 62
     0
100
AcDbLine
 10
16.834892
 20
4.437302
 30
0.0
 11
18.656952
 21
4.437302
 31
0.0
  0
LINE
  5
1A6
100
AcDbEntity
  8
0
390
0
  6
CONTINUOUS
 62
     0
100
AcDbLine
 10
16.834892
 20
0.000015
 30
0.0
 11
18.656952
 21
0.000015
 31
0.0
  0
LINE
  5
1A7
100
AcDbEntity
  8
0
390
0
  6
CONTINUOUS
 62
     0
100
AcDbLine
 10
14.29081
 20
1.627098
 30
0.0
 11
14.29081
 21
0.0
 31
0.0
  0
LINE
  5
1A8
100
AcDbEntity
  8
0
390
0
  6
CONTINUOUS
 62
     0
100
AcDbLine
 10
38.136126
 20
0.000097
 30
0.0
 11
35.62175
 21
4.437263
 31
0.0
  0
LINE
  5
1A9
100
AcDbEntity
  8
0
390
0
  6
CONTINUOUS
 62
     0
100
AcDbLine
 10
36.674036
 20
0.000002
 30
0.0
 11
36.254984
 21
0.739515
 31
0.0
  0
LINE
  5
1AA
100
AcDbEntity
  8
0
390
0
  6
CONTINUOUS
 62
     0
100
AcDbLine
 10
35.752436
 20
1.626965
 30
0.0
 11
34.712341
 21
3.462418
 31
0.0
  0
LINE
  5
1AB
100
AcDbEntity
  8
0
390
0
  6
CONTINUOUS
 62
     0
100
AcDbLine
 10
33.672051
 20
1.627072
 30
0.0
 11
34.712108
 21
3.462442
 31
0.0
  0
LINE
  5
1AC
100
AcDbEntity
  8
0
390
0
  6
CONTINUOUS
 62
     0
100
AcDbLine
 10
33.672188
 20
1.627083
 30
0.0
 11
35.752327
 21
1.627083
 31
0.0
  0
LINE
  5
1AD
100
AcDbEntity
  8
0
390
0
  6
CONTINUOUS
 62
     0
100
AcDbLine
 10
33.169319
 20
0.738998
 30
0.0
 11
36.255188
 21
0.738998
 31
0.0
  0
LINE
  5
1AE
100
AcDbEntity
  8
0
390
0
  6
CONTINUOUS
 62
     0
100
AcDbLine
 10
32.750442
 20
-0.000219
 30
0.0
 11
33.169532
 21
0.739348
 31
0.0
  0
LINE
  5
1AF
100
AcDbEntity
  8
0
390
0
  6
CONTINUOUS
 62
     0
100
AcDbLine
 10
31.287743
 20
0.000262
 30
0.0
 11
33.80215
 21
4.437459
 31
0.0
  0
LINE
  5
1B0
100
AcDbEntity
  8
0
390
0
  6
CONTINUOUS
 62
     0
100
AcDbLine
 10
16.277017
 20
2.218516
 30
0.0
 11
18.656834
 21
0.000049
 31
0.0
  0
LINE
  5
1B1
100
AcDbEntity
  8
0
390
0
  6
CONTINUOUS
 62
     0
100
AcDbLine
 10
15.089823
 20
1.626855
 30
0.0
 11
16.835171
 21
-0.000145
 31
0.0
  0
LINE
  5
1B2
100
AcDbEntity
  8
0
390
0
  6
CONTINUOUS
 62
     0
100
AcDbLine
 10
16.277186
 20
2.218402
 30
0.0
 11
18.657143
 21
4.437007
 31
0.0
  0
LINE
  5
1B3
100
AcDbEntity
  8
0
390
0
  6
CONTINUOUS
 62
     0
100
AcDbLine
 10
15.089013
 20
2.810919
 30
0.0
 11
16.834306
 21
4.437876
 31
0.0
  0
LINE
  5
1B4
100
AcDbEntity
  8
0
390
0
  6
CONTINUOUS
 62
     0
100
AcDbLine
 10
14.290756
 20
2.810212
 30
0.0
 11
15.089454
 21
2.810197
 31
0.0
  0
LINE
  5
1B5
100
AcDbEntity
  8
0
390
0
  6
CONTINUOUS
 62
     0
100
AcDbLine
 10
14.290886
 20
1.627098
 30
0.0
 11
15.089615
 21
1.627098
 31
0.0
  0
LINE
  5
1B6
100
AcDbEntity
  8
0
390
0
  6
CONTINUOUS
 62
     0
100
AcDbLine
 10
14.29081
 20
4.437302
 30
0.0
 11
14.29081
 21
2.810196
 31
0.0
  0
LINE
  5
1B7
100
AcDbEntity
  8
0
390
0
  6
CONTINUOUS
 62
     0
100
AcDbLine
 10
13.0485
 20
0.000015
 30
0.0
 11
14.290878
 21
0.000015
 31
0.0
  0
LINE
  5
1B8
100
AcDbEntity
  8
0
390
0
  6
CONTINUOUS
 62
     0
100
AcDbLine
 10
13.048416
 20
4.437317
 30
0.0
 11
13.048416
 21
0.000015
 31
0.0
  0
LINE
  5
1B9
100
AcDbEntity
  8
0
390
0
  6
CONTINUOUS
 62
     0
100
AcDbLine
 10
13.048546
 20
4.437316
 30
0.0
 11
14.290932
 21
4.437301
 31
0.0
  0
ENDBLK
  5
1BA
100
AcDbEntity
  8
0
370
    -2
390
0
  6
ByBlock
 62
     0
100
AcDbBlockEnd
  0
BLOCK
  5
1BD
100
AcDbEntity
  8
0
370
    -2
390
0
  6
ByBlock
 62
     0
100
AcDbBlockBegin
  2
$KAKUDAI-3
 70
     0
 10
0.0
 20
0.0
 30
0.0
  3
$KAKUDAI-3
  1

  0
ARC
  5
1BE
100
AcDbEntity
  8
0
390
0
  6
CONTINUOUS
 62
     0
100
AcDbCircle
 10
0.0
 20
0.0
 30
0.0
 40
4.14
100
AcDbArc
 50
299.461315
 51
60.538685
  0
ARC
  5
1BF
100
AcDbEntity
  8
0
390
0
  6
CONTINUOUS
 62
     0
100
AcDbCircle
 10
0.0
 20
0.0
 30
0.0
 40
4.14
100
AcDbArc
 50
105.408581
 51
254.591422
  0
ARC
  5
1C0
100
AcDbEntity
  8
0
390
0
  6
CONTINUOUS
 62
     0
100
AcDbCircle
 10
0.0
 20
0.0
 30
0.0
 40
5.0
100
AcDbArc
 50
92.751257
 51
267.248746
  0
ARC
  5
1C1
100
AcDbEntity
  8
0
390
0
  6
CONTINUOUS
 62
     0
100
AcDbCircle
 10
0.0
 20
0.0
 30
0.0
 40
5.0
100
AcDbArc
 50
286.992764
 51
73.007236
  0
LINE
  5
1C2
100
AcDbEntity
  8
0
390
0
  6
CONTINUOUS
 62
     0
100
AcDbLine
 10
2.0362
 20
-3.604648
 30
0.0
 11
1.070337
 21
0.0
 31
0.0
  0
LINE
  5
1C3
100
AcDbEntity
  8
0
390
0
  6
CONTINUOUS
 62
     0
100
AcDbLine
 10
1.461255
 20
-4.781708
 30
0.0
 11
0.18
 21
0.0
 31
0.0
  0
LINE
  5
1C4
100
AcDbEntity
  8
0
390
0
  6
CONTINUOUS
 62
     0
100
AcDbLine
 10
1.070337
 20
0.0
 30
0.0
 11
2.0362
 21
3.604648
 31
0.0
  0
LINE
  5
1C5
100
AcDbEntity
  8
0
390
0
  6
CONTINUOUS
 62
     0
100
AcDbLine
 10
0.18
 20
0.0
 30
0.0
 11
1.461255
 21
4.781708
 31
0.0
  0
LINE
  5
1C6
100
AcDbEntity
  8
0
390
0
  6
CONTINUOUS
 62
     0
100
AcDbLine
 10
-1.1
 20
3.99119
 30
0.0
 11
-1.1
 21
-3.99119
 31
0.0
  0
LINE
  5
1C7
100
AcDbEntity
  8
0
390
0
  6
CONTINUOUS
 62
     0
100
AcDbLine
 10
-0.24
 20
4.994236
 30
0.0
 11
-0.24
 21
-4.994236
 31
0.0
  0
ENDBLK
  5
1C8
100
AcDbEntity
  8
0
370
    -2
390
0
  6
ByBlock
 62
     0
100
AcDbBlockEnd
  0
ENDSEC
  0
SECTION
  2
ENTITIES
  0
MTEXT
  5
2D
100
AcDbEntity
  8
CLASS1
390
0
  6
CONTINUOUS
 62
   143
100
AcDbMText
 10
90.416667
 20
-139.25
 30
0.0
 40
2.5
 41
0.0
 71
     1
 72
     1
  1
\A1;A4
 73
     1
 44
0.96
  0
MTEXT
  5
2E
100
AcDbEntity
  8
CLASS1
390
0
  6
CONTINUOUS
 62
   143
100
AcDbMText
 10
6.134375
 20
-123.609492
 30
0.0
 40
4.0
 41
0.0
 71
     1
 72
     1
  1
\W0.833333;\A1;大西
 73
     1
 44
0.96
  0
DIMENSION
  5
3C
100
AcDbEntity
  8
CLASS1
390
0
  6
CONTINUOUS
 62
   143
100
AcDbDimension
  2
*D1
 10
-30.0
 20
-30.0
 30
0.0
 11
16.25
 21
-30.0
 31
0.0
 70
   128
 71
     5
 72
     1
 41
0.96
 42
92.5
  1
\A1;(<>)
  3
MXDIMSTYLE
100
AcDbAlignedDimension
 13
62.5
 23
1.354095
 33
0.0
 14
-30.0
 24
-7.25
 34
0.0
100
AcDbRotatedDimension
1001
ACAD
1000
DSTYLE
1002
{
1070
    41
1040
2.77
1070
   271
1070
     1
1070
   284
1070
     8
1070
   340
1005
36
1002
}
  0
LINE
  5
3D
100
AcDbEntity
  8
CLASS1
390
0
  6
CONTINUOUS
 62
   110
100
AcDbLine
 10
-1.499995
 20
20.249982
 30
0.0
 11
-3.628852
 21
19.020878
 31
0.0
  0
LINE
  5
3E
100
AcDbEntity
  8
CLASS1
390
0
  6
CONTINUOUS
 62
     3
100
AcDbLine
 10
-4.500002
 20
20.15626
 30
0.0
 11
-1.499998
 21
20.25001
 31
0.0
  0
LINE
  5
3F
100
AcDbEntity
  8
CLASS1
390
0
  6
CONTINUOUS
 62
   110
100
AcDbLine
 10
-4.500002
 20
18.993675
 30
0.0
 11
-3.628862
 21
19.020898
 31
0.0
  0
LINE
  5
40
100
AcDbEntity
  8
CLASS1
390
0
  6
CONTINUOUS
 62
   110
100
AcDbLine
 10
-1.49999
 20
-0.250018
 30
0.0
 11
-3.628856
 21
0.979091
 31
0.0
  0
LINE
  5
41
100
AcDbEntity
  8
CLASS1
390
0
  6
CONTINUOUS
 62
     3
100
AcDbLine
 10
-4.500002
 20
-0.156248
 30
0.0
 11
-1.500002
 21
-0.249998
 31
0.0
  0
LINE
  5
42
100
AcDbEntity
  8
CLASS1
390
0
  6
CONTINUOUS
 62
   110
100
AcDbLine
 10
-4.500002
 20
1.006322
 30
0.0
 11
-3.628856
 21
0.979098
 31
0.0
  0
LINE
  5
43
100
AcDbEntity
  8
CLASS1
390
0
  6
CONTINUOUS
 62
     3
100
AcDbLine
 10
-3.628859
 20
20.183483
 30
0.0
 11
-3.628859
 21
-0.183472
 31
0.0
  0
ARC
  5
44
100
AcDbEntity
  8
CLASS1
390
0
  6
CONTINUOUS
 62
     3
100
AcDbCircle
 10
42.499985
 20
-10.000008
 30
0.0
 40
10.0
100
AcDbArc
 50
204.190873
 51
269.99995
  0
LINE
  5
45
100
AcDbEntity
  8
CLASS1
390
0
  6
CONTINUOUS
 62
   110
100
AcDbLine
 10
48.371149
 20
-0.250008
 30
0.0
 11
50.50001
 21
0.979097
 31
0.0
  0
LINE
  5
46
100
AcDbEntity
  8
CLASS1
390
0
  6
CONTINUOUS
 62
     3
100
AcDbLine
 10
45.5
 20
-0.25
 30
0.0
 11
48.37114
 21
-0.25
 31
0.0
  0
LINE
  5
47
100
AcDbEntity
  8
CLASS1
390
0
  6
CONTINUOUS
 62
     3
100
AcDbLine
 10
42.5
 20
-20.000008
 30
0.0
 11
45.5
 21
-20.000008
 31
0.0
  0
LINE
  5
48
100
AcDbEntity
  8
CLASS1
390
0
  6
CONTINUOUS
 62
     3
100
AcDbLine
 10
61.299934
 20
0.154026
 30
0.0
 11
48.371156
 21
-0.249998
 31
0.0
  0
ARC
  5
49
100
AcDbEntity
  8
CLASS1
390
0
  6
CONTINUOUS
 62
     3
100
AcDbCircle
 10
74.134232
 20
4.975784
 30
0.0
 40
45.0
100
AcDbArc
 50
187.310142
 51
205.333126
  0
LINE
  5
4A
100
AcDbEntity
  8
CLASS1
390
0
  6
CONTINUOUS
 62
     3
100
AcDbLine
 10
-1.499856
 20
-0.250003
 30
0.0
 11
29.5
 21
-0.250003
 31
0.0
  0
LINE
  5
4B
100
AcDbEntity
  8
CLASS1
390
0
  6
CONTINUOUS
 62
     3
100
AcDbLine
 10
62.499943
 20
1.354144
 30
0.0
 11
61.299879
 21
0.154084
 31
0.0
  0
LINE
  5
4C
100
AcDbEntity
  8
CLASS1
390
0
  6
CONTINUOUS
 62
   110
100
AcDbLine
 10
62.50002
 20
1.354099
 30
0.0
 11
50.500011
 21
0.979099
 31
0.0
  0
LEADER
  5
4D
100
AcDbEntity
  8
CLASS1
390
0
  6
CONTINUOUS
 62
   143
100
AcDbLeader
  3
MXDIMSTYLE
 73
     3
 74
     0
 75
     0
 40
0.0
 76
     3
 10
54.835545
 20
-0.047986
 30
0.0
 10
67.242244
 20
-12.454684
 30
0.0
 10
77.242244
 20
-12.454684
 30
0.0
 77
   143
1001
ACAD
1000
DSTYLE
1002
{
1070
    41
1040
2.77
1002
}
  0
MTEXT
  5
4E
100
AcDbEntity
  8
CLASS1
390
0
  6
CONTINUOUS
 62
   143
100
AcDbMText
 10
67.242244
 20
-9.954684
 30
0.0
 40
2.5
 41
0.0
 71
     4
 72
     1
  1
\W1.090909;\A1;R1/2
 73
     1
 44
0.96
  0
ARC
  5
4F
100
AcDbEntity
  8
CLASS1
390
0
  6
CONTINUOUS
 62
     3
100
AcDbCircle
 10
42.500015
 20
29.999996
 30
0.0
 40
10.0
100
AcDbArc
 50
89.999986
 51
155.80905
  0
LINE
  5
50
100
AcDbEntity
  8
CLASS1
390
0
  6
CONTINUOUS
 62
     3
100
AcDbLine
 10
42.500015
 20
40.0
 30
0.0
 11
45.500015
 21
40.0
 31
0.0
  0
LINE
  5
51
100
AcDbEntity
  8
CLASS1
390
0
  6
CONTINUOUS
 62
     3
100
AcDbLine
 10
62.500002
 20
18.645895
 30
0.0
 11
61.299939
 21
19.845955
 31
0.0
  0
LINE
  5
52
100
AcDbEntity
  8
CLASS1
390
0
  6
CONTINUOUS
 62
     3
100
AcDbLine
 10
45.5
 20
20.25
 30
0.0
 11
48.371201
 21
20.25
 31
0.0
  0
LINE
  5
53
100
AcDbEntity
  8
CLASS1
390
0
  6
CONTINUOUS
 62
   110
100
AcDbLine
 10
48.371124
 20
20.25001
 30
0.0
 11
50.499976
 21
19.020909
 31
0.0
  0
LINE
  5
54
100
AcDbEntity
  8
CLASS1
390
0
  6
CONTINUOUS
 62
     3
100
AcDbLine
 10
61.299953
 20
19.845977
 30
0.0
 11
48.371157
 21
20.250002
 31
0.0
  0
LINE
  5
55
100
AcDbEntity
  8
CLASS1
390
0
  6
CONTINUOUS
 62
   110
100
AcDbLine
 10
62.500024
 20
18.645897
 30
0.0
 11
50.500018
 21
19.020897
 31
0.0
  0
ARC
  5
56
100
AcDbEntity
  8
CLASS1
390
0
  6
CONTINUOUS
 62
     3
100
AcDbCircle
 10
74.134232
 20
15.024155
 30
0.0
 40
45.0
100
AcDbArc
 50
154.66681
 51
172.689803
  0
LINE
  5
57
100
AcDbEntity
  8
CLASS1
390
0
  6
CONTINUOUS
 62
     3
100
AcDbLine
 10
-1.500405
 20
20.249997
 30
0.0
 11
29.5
 21
20.249997
 31
0.0
  0
LINE
  5
58
100
AcDbEntity
  8
CLASS1
390
0
  6
CONTINUOUS
 62
     3
100
AcDbLine
 10
29.5
 20
-0.750067
 30
0.0
 11
29.5
 21
20.750006
 31
0.0
  0
DIMENSION
  5
66
100
AcDbEntity
  8
CLASS1
390
0
  6
CONTINUOUS
 62
   143
100
AcDbDimension
  2
*D2
 10
85.0
 20
-20.000008
 30
0.0
 11
85.0
 21
9.999996
 31
0.0
 70
   128
 71
     5
 72
     1
 41
0.96
 42
60.000008
  1
\A1;\U+2205<>
  3
MXDIMSTYLE
100
AcDbAlignedDimension
 13
45.500015
 23
40.0
 33
0.0
 14
45.5
 24
-20.000008
 34
0.0
 50
90.0
100
AcDbRotatedDimension
1001
ACAD
1000
DSTYLE
1002
{
1070
    41
1040
2.77
1070
    78
1070
     0
1070
   271
1070
     1
1070
   340
1005
60
1002
}
  0
LINE
  5
67
100
AcDbEntity
  8
CLASS1
390
0
  6
CONTINUOUS
 62
     3
100
AcDbLine
 10
45.5
 20
-20.000008
 30
0.0
 11
45.5
 21
40.0
 31
0.0
  0
LINE
  5
68
100
AcDbEntity
  8
CLASS1
390
0
  6
CONTINUOUS
 62
     3
100
AcDbLine
 10
62.5
 20
18.645897
 30
0.0
 11
62.5
 21
1.354095
 31
0.0
  0
LINE
  5
69
100
AcDbEntity
  8
CLASS1
390
0
  6
CONTINUOUS
 62
     3
100
AcDbLine
 10
61.299953
 20
0.154027
 30
0.0
 11
61.299953
 21
19.845977
 31
0.0
  0
LINE
  5
6A
100
AcDbEntity
  8
CLASS1
390
0
  6
CONTINUOUS
 62
     3
100
AcDbLine
 10
50.5
 20
20.183475
 30
0.0
 11
50.5
 21
-0.183472
 31
0.0
  0
LEADER
  5
6B
100
AcDbEntity
  8
CLASS1
390
0
  6
CONTINUOUS
 62
   143
100
AcDbLeader
  3
MXDIMSTYLE
 73
     3
 74
     0
 75
     0
 40
0.0
 76
     3
 10
-19.5225
 20
29.419
 30
0.0
 10
-11.749657
 20
37.191843
 30
0.0
 10
-1.749657
 20
37.191843
 30
0.0
 77
   143
1001
ACAD
1000
DSTYLE
1002
{
1070
    41
1040
2.77
1002
}
  0
MTEXT
  5
6C
100
AcDbEntity
  8
CLASS1
390
0
  6
CONTINUOUS
 62
   143
100
AcDbMText
 10
-11.749657
 20
39.691843
 30
0.0
 40
2.5
 41
0.0
 71
     4
 72
     1
  1
\W1.090909;\A1;G1/2
 73
     1
 44
0.96
  0
DIMENSION
  5
7D
100
AcDbEntity
  8
CLASS1
390
0
  6
CONTINUOUS
 62
   143
100
AcDbDimension
  2
*D3
 10
-23.5
 20
50.0
 30
0.0
 11
-10.794561
 21
50.0
 31
0.0
 70
   128
 71
     5
 72
     1
 41
0.96
 42
13.0
  1
\A1;内径\U+2205<>
  3
MXDIMSTYLE
100
AcDbAlignedDimension
 13
-36.5
 23
34.999996
 33
0.0
 14
-23.5
 24
34.999996
 34
0.0
100
AcDbRotatedDimension
1001
ACAD
1000
DSTYLE
1002
{
1070
    41
1040
2.77
1070
    78
1070
     0
1070
   271
1070
     1
1070
   340
1005
77
1002
}
  0
LINE
  5
7F
100
AcDbEntity
  8
CLASS1
390
0
  6
CENTER
 62
   110
100
AcDbLine
 10
-30.0
 20
40.0
 30
0.0
 11
-30.0
 21
-7.25
 31
0.0
  0
LINE
  5
80
100
AcDbEntity
  8
CLASS1
390
0
  6
CENTER
 62
   110
100
AcDbLine
 10
67.5
 20
10.0
 30
0.0
 11
-77.488782
 21
10.0
 31
0.0
  0
LINE
  5
81
100
AcDbEntity
  8
CLASS1
390
0
  6
CONTINUOUS
 62
   110
100
AcDbLine
 10
-44.5
 20
-1.18699
 30
0.0
 11
-43.5
 21
-1.18699
 31
0.0
  0
LINE
  5
82
100
AcDbEntity
  8
CLASS1
390
0
  6
CONTINUOUS
 62
   110
100
AcDbLine
 10
-42.091843
 20
-1.99999
 30
0.0
 11
-43.5
 21
-1.18699
 31
0.0
  0
LINE
  5
83
100
AcDbEntity
  8
CLASS1
390
0
  6
CONTINUOUS
 62
     3
100
AcDbLine
 10
-43.5
 20
-2.0
 30
0.0
 11
-43.5
 21
22.00001
 31
0.0
  0
LINE
  5
84
100
AcDbEntity
  8
CLASS1
390
0
  6
CONTINUOUS
 62
   110
100
AcDbLine
 10
-44.5
 20
21.18701
 30
0.0
 11
-43.5
 21
21.18701
 31
0.0
  0
LINE
  5
85
100
AcDbEntity
  8
CLASS1
390
0
  6
CONTINUOUS
 62
   110
100
AcDbLine
 10
-42.091843
 20
22.00001
 30
0.0
 11
-43.5
 21
21.18701
 31
0.0
  0
LINE
  5
86
100
AcDbEntity
  8
CLASS1
390
0
  6
CONTINUOUS
 62
   110
100
AcDbLine
 10
-20.6845
 20
35.00001
 30
0.0
 11
-20.6845
 21
27.012653
 31
0.0
  0
LINE
  5
87
100
AcDbEntity
  8
CLASS1
390
0
  6
CONTINUOUS
 62
   110
100
AcDbLine
 10
-19.5225
 20
25.00001
 30
0.0
 11
-20.6845
 21
27.012653
 31
0.0
  0
LINE
  5
88
100
AcDbEntity
  8
CLASS1
390
0
  6
CONTINUOUS
 62
     3
100
AcDbLine
 10
-19.5225
 20
27.012653
 30
0.0
 11
-40.4775
 21
27.012653
 31
0.0
  0
LINE
  5
89
100
AcDbEntity
  8
CLASS1
390
0
  6
CONTINUOUS
 62
   110
100
AcDbLine
 10
-39.3155
 20
35.00001
 30
0.0
 11
-39.3155
 21
27.012653
 31
0.0
  0
LINE
  5
8A
100
AcDbEntity
  8
CLASS1
390
0
  6
CONTINUOUS
 62
   110
100
AcDbLine
 10
-40.4775
 20
25.00001
 30
0.0
 11
-39.3155
 21
27.012653
 31
0.0
  0
ARC
  5
8B
100
AcDbEntity
  8
CLASS1
390
0
  6
CONTINUOUS
 62
     3
100
AcDbCircle
 10
-9.642733
 20
23.222432
 30
0.0
 40
1.5
100
AcDbArc
 50
90.0
 51
111.285114
  0
ARC
  5
8C
100
AcDbEntity
  8
CLASS1
390
0
  6
CONTINUOUS
 62
     3
100
AcDbCircle
 10
-9.642733
 20
-3.222432
 30
0.0
 40
1.5
100
AcDbArc
 50
248.714886
 51
270.0
  0
SPLINE
  5
8D
100
AcDbEntity
  8
CLASS1
390
0
  6
CONTINUOUS
 62
     3
100
AcDbSpline
210
0.0
220
0.0
230
1.0
 70
     0
 71
     3
 72
     0
 73
     0
 74
    29
 44
0.000001
 12
-0.9305008018543189
 22
-0.3662898548260238
 32
0.0
 13
0.929530726133486
 23
-0.3687446666377078
 33
0.0
 11
-9.9276897594530737
 21
2.6387840678322618
 31
0.0
 11
-12.029072815352293
 21
1.8026969721814794
 31
0.0
 11
-13.073512136731665
 21
1.3805034634711433
 31
0.0
 11
-14.100771017812093
 21
0.9480039224066559
 31
0.0
 11
-14.776243711918227
 21
0.6457498202502165
 31
0.0
 11
-15.426456760143992
 21
0.3289445106735229
 31
0.0
 11
-15.746568035770821
 21
0.1570508846575649
 31
0.0
 11
-16.049756383190584
 21
-0.022281086488988
 31
0.0
 11
-16.333784450934019
 21
-0.2140501912956552
 31
0.0
 11
-16.581770309331631
 21
-0.4176893049761929
 31
0.0
 11
-16.759434898914265
 21
-0.6107350367894924
 31
0.0
 11
-16.881414091581121
 21
-0.818694783185947
 31
0.0
 11
-16.914039439224979
 21
-0.9240864023353197
 31
0.0
 11
-16.926638986091945
 21
-1.0305331279996608
 31
0.0
 11
-16.917661289029979
 21
-1.1412343749559
 31
0.0
 11
-16.886899304885219
 21
-1.2509675101009066
 31
0.0
 11
-16.832279244601324
 21
-1.3645905910365741
 31
0.0
 11
-16.75756354302564
 21
-1.4753546547036649
 31
0.0
 11
-16.552724661878784
 21
-1.6925744161638931
 31
0.0
 11
-16.348768175787001
 21
-1.858625176073474
 31
0.0
 11
-16.119973200442644
 21
-2.016825145332632
 31
0.0
 11
-15.873358600104325
 21
-2.168054349676197
 31
0.0
 11
-15.469958511327718
 21
-2.3901372209862757
 31
0.0
 11
-15.04544334275414
 21
-2.6022685915441457
 31
0.0
 11
-14.230398995419137
 21
-2.9762611829488606
 31
0.0
 11
-13.387667406561548
 21
-3.3350519929443863
 31
0.0
 11
-12.5301559978505
 21
-3.6849822962814187
 31
0.0
 11
-11.230525228771512
 21
-4.2047050927264991
 31
0.0
 11
-10.157263166288704
 21
-4.6314240701256812
 31
0.0
  0
SPLINE
  5
8E
100
AcDbEntity
  8
CLASS1
390
0
  6
CONTINUOUS
 62
     3
100
AcDbSpline
210
0.0
220
0.0
230
1.0
 70
     0
 71
     3
 72
     0
 73
     0
 74
    29
 44
0.000001
 12
-0.7822507645958334
 22
-0.6229636757381879
 32
0.0
 13
0.7837733928421878
 23
-0.6210469134233303
 33
0.0
 11
-9.9276897594530737
 21
17.361215932167624
 31
0.0
 11
-10.518935396624414
 21
16.890564484771062
 31
0.0
 11
-12.058804783486437
 21
15.666659656075467
 31
0.0
 11
-13.581890686987663
 21
14.42221153840029
 31
0.0
 11
-14.087193536517816
 21
13.996331785641985
 31
0.0
 11
-14.588346796082988
 21
13.561531183941725
 31
0.0
 11
-15.075829231097231
 21
13.111892560467425
 31
0.0
 11
-15.540119606974599
 21
12.641498742386943
 31
0.0
 11
-15.971696689129146
 21
12.144432556868082
 31
0.0
 11
-16.361039242974925
 21
11.614776831078871
 31
0.0
 11
-16.536147082292246
 21
11.331113232686334
 31
0.0
 11
-16.687807207176775
 21
11.033822234999889
 31
0.0
 11
-16.808308538028371
 21
10.723754235993852
 31
0.0
 11
-16.895765868068537
 21
10.366333208346362
 31
0.0
 11
-16.926755581452369
 21
9.9999999999998863
 31
0.0
 11
-16.906831663225461
 21
9.7087888617134013
 31
0.0
 11
-16.85012598203781
 21
9.4210953465803868
 31
0.0
 11
-16.761237648129111
 21
9.142551717594074
 31
0.0
 11
-16.582578868192996
 21
8.7525773876021162
 31
0.0
 11
-16.36030572228222
 21
8.3835685278645542
 31
0.0
 11
-16.108002686337613
 21
8.0349467023521584
 31
0.0
 11
-15.581357093564549
 21
7.410051374733257
 31
0.0
 11
-15.011701132875658
 21
6.8230795381332427
 31
0.0
 11
-14.409291211234006
 21
6.2661034119953456
 31
0.0
 11
-13.784383735602717
 21
5.7311952157626251
 31
0.0
 11
-13.147235112944912
 21
5.2104271688783115
 31
0.0
 11
-12.508101750223688
 21
4.695871490785521
 31
0.0
 11
-11.219418848282032
 21
3.6654299913903969
 31
0.0
 11
-9.9276897594530737
 21
2.6387840678322618
 31
0.0
  0
SPLINE
  5
8F
100
AcDbEntity
  8
CLASS1
390
0
  6
CONTINUOUS
 62
     3
100
AcDbSpline
210
0.0
220
0.0
230
1.0
 70
     0
 71
     3
 72
     0
 73
     0
 74
    29
 44
0.000001
 12
-0.930094028702097
 22
-0.3673215182543798
 32
0.0
 13
0.9297130297997089
 23
-0.3682847841285947
 33
0.0
 11
-10.183779344955353
 21
24.621456237787353
 31
0.0
 11
-12.029072815352293
 21
23.886344768684637
 31
0.0
 11
-13.073512136731665
 21
23.464151259974358
 31
0.0
 11
-14.100771017812093
 21
23.03165171890987
 31
0.0
 11
-14.776243711918227
 21
22.729397616753431
 31
0.0
 11
-15.426456760143992
 21
22.412592307176681
 31
0.0
 11
-15.746568035770792
 21
22.240698681160779
 31
0.0
 11
-16.049756383190527
 21
22.06136671001417
 31
0.0
 11
-16.33378445093399
 21
21.869597605207559
 31
0.0
 11
-16.581770309331603
 21
21.665958491527022
 31
0.0
 11
-16.759434898914265
 21
21.472912759713779
 31
0.0
 11
-16.881414091581121
 21
21.264953013317268
 31
0.0
 11
-16.914039439224979
 21
21.159561394167895
 31
0.0
 11
-16.926638986091945
 21
21.053114668503554
 31
0.0
 11
-16.917661289029951
 21
20.942413421547315
 31
0.0
 11
-16.886899304885162
 21
20.832680286402251
 31
0.0
 11
-16.832279244601267
 21
20.71905720546664
 31
0.0
 11
-16.757563543025611
 21
20.60829314179955
 31
0.0
 11
-16.552724661878756
 21
20.391073380339321
 31
0.0
 11
-16.348768175787029
 21
20.225022620429797
 31
0.0
 11
-16.119973200442672
 21
20.066822651170583
 31
0.0
 11
-15.87335860010441
 21
19.915593446827074
 31
0.0
 11
-15.469958511327832
 21
19.693510575516996
 31
0.0
 11
-15.045443342754339
 21
19.481379204959126
 31
0.0
 11
-14.230398995419307
 21
19.107386613554354
 31
0.0
 11
-13.387667406561661
 21
18.748595803558828
 31
0.0
 11
-12.530155997850585
 21
18.398665500221739
 31
0.0
 11
-11.230525228771569
 21
17.878942703776715
 31
0.0
 11
-9.9276897594530737
 21
17.361215932167624
 31
0.0
  0
ELLIPSE
  5
90
100
AcDbEntity
  8
CLASS1
390
0
  6
CONTINUOUS
 62
     3
100
AcDbEllipse
 10
-6.0
 20
-2.990381
 30
0.0
 11
0.0000000000000001
 21
1.7320508075688774
 31
0.0
210
0.0
220
0.0
230
1.0
 40
0.866025
 41
3.1415926535897931
 42
4.7123889803846897
  0
ELLIPSE
  5
91
100
AcDbEntity
  8
CLASS1
390
0
  6
CONTINUOUS
 62
     3
100
AcDbEllipse
 10
-6.0
 20
22.990381
 30
0.0
 11
0.0000000000000001
 21
1.7320508075688774
 31
0.0
210
0.0
220
0.0
230
1.0
 40
0.866025
 41
4.7123889803846897
 42
0.0
  0
ARC
  5
92
100
AcDbEntity
  8
CLASS1
390
0
  6
CONTINUOUS
 62
     3
100
AcDbCircle
 10
-17.014892
 20
25.273156
 30
0.0
 40
2.499988
100
AcDbArc
 50
186.180967
 51
280.362741
  0
ARC
  5
93
100
AcDbEntity
  8
CLASS1
390
0
  6
CONTINUOUS
 62
     3
100
AcDbCircle
 10
-43.0
 20
24.75
 30
0.0
 40
2.5
100
AcDbArc
 50
291.23477
 51
359.923581
  0
ARC
  5
94
100
AcDbEntity
  8
CLASS1
390
0
  6
CONTINUOUS
 62
     3
100
AcDbCircle
 10
-22.8
 20
-36.995
 30
0.0
 40
34.745
100
AcDbArc
 50
68.714886
 51
90.0
  0
ARC
  5
95
100
AcDbEntity
  8
CLASS1
390
0
  6
CONTINUOUS
 62
     3
100
AcDbCircle
 10
-22.8
 20
56.995
 30
0.0
 40
34.745
100
AcDbArc
 50
280.331186
 51
291.285114
  0
LINE
  5
96
100
AcDbEntity
  8
CLASS1
390
0
  6
CONTINUOUS
 62
     3
100
AcDbLine
 10
-19.5
 20
25.0
 30
0.0
 11
-19.716418
 21
25.0
 31
0.0
  0
LINE
  5
97
100
AcDbEntity
  8
CLASS1
390
0
  6
CONTINUOUS
 62
     3
100
AcDbLine
 10
-39.3155
 20
35.0
 30
0.0
 11
-40.4775
 21
33.838
 31
0.0
  0
LINE
  5
98
100
AcDbEntity
  8
CLASS1
390
0
  6
CONTINUOUS
 62
     3
100
AcDbLine
 10
-19.5225
 20
33.838
 30
0.0
 11
-20.6845
 21
35.0
 31
0.0
  0
LINE
  5
99
100
AcDbEntity
  8
CLASS1
390
0
  6
CONTINUOUS
 62
     3
100
AcDbLine
 10
-20.6845
 20
35.0
 30
0.0
 11
-39.3155
 21
35.0
 31
0.0
  0
LINE
  5
9A
100
AcDbEntity
  8
CLASS1
390
0
  6
CONTINUOUS
 62
     3
100
AcDbLine
 10
-40.4775
 20
33.838
 30
0.0
 11
-40.4775
 21
25.0
 31
0.0
  0
LINE
  5
9B
100
AcDbEntity
  8
CLASS1
390
0
  6
CONTINUOUS
 62
     3
100
AcDbLine
 10
-19.5225
 20
25.0
 30
0.0
 11
-19.5225
 21
33.838
 31
0.0
  0
LINE
  5
9C
100
AcDbEntity
  8
CLASS1
390
0
  6
CONTINUOUS
 62
     3
100
AcDbLine
 10
-19.5225
 20
33.838
 30
0.0
 11
-40.4775
 21
33.838
 31
0.0
  0
LINE
  5
9D
100
AcDbEntity
  8
CLASS1
390
0
  6
CONTINUOUS
 62
     3
100
AcDbLine
 10
-19.716418
 20
25.0
 30
0.0
 11
-40.5
 21
25.0
 31
0.0
  0
LINE
  5
9E
100
AcDbEntity
  8
CLASS1
390
0
  6
CONTINUOUS
 62
     3
100
AcDbLine
 10
-40.5
 20
25.0
 30
0.0
 11
-40.5
 21
24.746362
 31
0.0
  0
LINE
  5
9F
100
AcDbEntity
  8
CLASS1
390
0
  6
CONTINUOUS
 62
     3
100
AcDbLine
 10
-42.091843
 20
21.590732
 30
0.0
 11
-42.091843
 21
22.420783
 31
0.0
  0
LINE
  5
A0
100
AcDbEntity
  8
CLASS1
390
0
  6
CONTINUOUS
 62
     3
100
AcDbLine
 10
-44.5
 20
-2.0
 30
0.0
 11
-42.091843
 21
-2.0
 31
0.0
  0
LINE
  5
A1
100
AcDbEntity
  8
CLASS1
390
0
  6
CONTINUOUS
 62
     3
100
AcDbLine
 10
-42.091843
 20
22.0
 30
0.0
 11
-44.5
 21
22.0
 31
0.0
  0
LINE
  5
A2
100
AcDbEntity
  8
CLASS1
390
0
  6
CONTINUOUS
 62
     3
100
AcDbLine
 10
-42.091843
 20
-2.25
 30
0.0
 11
-22.8
 21
-2.25
 31
0.0
  0
LINE
  5
A3
100
AcDbEntity
  8
CLASS1
390
0
  6
CONTINUOUS
 62
     3
100
AcDbLine
 10
-42.091843
 20
-2.25
 30
0.0
 11
-42.091843
 21
21.590732
 31
0.0
  0
LINE
  5
A4
100
AcDbEntity
  8
CLASS1
390
0
  6
CONTINUOUS
 62
     3
100
AcDbLine
 10
-9.642733
 20
-4.722432
 30
0.0
 11
-6.0
 21
-4.722432
 31
0.0
  0
LINE
  5
A5
100
AcDbEntity
  8
CLASS1
390
0
  6
CONTINUOUS
 62
     3
100
AcDbLine
 10
-4.5
 20
3.504809
 30
0.0
 11
-4.5
 21
-2.990381
 31
0.0
  0
LINE
  5
A6
100
AcDbEntity
  8
CLASS1
390
0
  6
CONTINUOUS
 62
     3
100
AcDbLine
 10
-4.5
 20
16.495191
 30
0.0
 11
-4.5
 21
3.504809
 31
0.0
  0
LINE
  5
A7
100
AcDbEntity
  8
CLASS1
390
0
  6
CONTINUOUS
 62
     3
100
AcDbLine
 10
-9.642733
 20
24.722432
 30
0.0
 11
-6.0
 21
24.722432
 31
0.0
  0
LINE
  5
A8
100
AcDbEntity
  8
CLASS1
390
0
  6
CONTINUOUS
 62
     3
100
AcDbLine
 10
-4.5
 20
22.990381
 30
0.0
 11
-4.5
 21
16.495191
 31
0.0
  0
LINE
  5
A9
100
AcDbEntity
  8
CLASS1
390
0
  6
CONTINUOUS
 62
     3
100
AcDbLine
 10
-9.92769
 20
2.638784
 30
0.0
 11
-6.0
 21
2.638784
 31
0.0
  0
LINE
  5
AA
100
AcDbEntity
  8
CLASS1
390
0
  6
CONTINUOUS
 62
     3
100
AcDbLine
 10
-9.92769
 20
17.361216
 30
0.0
 11
-6.0
 21
17.361216
 31
0.0
  0
LINE
  5
AB
100
AcDbEntity
  8
CLASS1
390
0
  6
CONTINUOUS
 62
     3
100
AcDbLine
 10
-59.5
 20
5.25125
 30
0.0
 11
-56.5
 21
5.25125
 31
0.0
  0
LINE
  5
AC
100
AcDbEntity
  8
CLASS1
390
0
  6
CONTINUOUS
 62
     3
100
AcDbLine
 10
-56.5
 20
14.75125
 30
0.0
 11
-59.5
 21
14.75125
 31
0.0
  0
SPLINE
  5
AD
100
AcDbEntity
  8
CLASS1
390
0
  6
CONTINUOUS
 62
     3
100
AcDbSpline
210
0.0
220
0.0
230
1.0
 70
     0
 71
     3
 72
     0
 73
     0
 74
     7
 44
0.000001
 12
0.7154928563637122
 22
0.6986200487335704
 32
0.0
 13
0.9997092650952186
 23
0.0241119323733698
 33
0.0
 11
-72.488781563689827
 21
16.484166326688865
 31
0.0
 11
-72.297927995595444
 21
16.645620581934509
 31
0.0
 11
-72.07069139213462
 21
16.78589072572106
 31
0.0
 11
-71.820018071627032
 21
16.891790924080965
 31
0.0
 11
-71.536901350343726
 21
16.961899032208692
 31
0.0
 11
-71.286230804223464
 21
16.985551139787162
 31
0.0
 11
-71.28329363033788
 21
16.985624324035484
 31
0.0
  0
SPLINE
  5
AE
100
AcDbEntity
  8
CLASS1
390
0
  6
CONTINUOUS
 62
     3
100
AcDbSpline
210
0.0
220
0.0
230
1.0
 70
     0
 71
     3
 72
     0
 73
     0
 74
     7
 44
0.000001
 12
0.9997182567568754
 22
0.0237361982422242
 32
0.0
 13
0.7154289877123381
 23
-0.6986854539353881
 33
0.0
 11
-71.28329363033788
 21
16.985624324035484
 31
0.0
 11
-71.025355276733308
 21
16.973774131141113
 31
0.0
 11
-70.799033827405196
 21
16.932868022629066
 31
0.0
 11
-70.578586369420236
 21
16.863254375846054
 31
0.0
 11
-70.371250768671359
 21
16.76697892805231
 31
0.0
 11
-70.180553208164042
 21
16.646289303786659
 31
0.0
 11
-69.988781563689827
 21
16.484166326688865
 31
0.0
  0
SPLINE
  5
AF
100
AcDbEntity
  8
CLASS1
390
0
  6
CONTINUOUS
 62
     3
100
AcDbSpline
210
0.0
220
0.0
230
1.0
 70
     0
 71
     3
 72
     0
 73
     0
 74
    12
 44
0.000001
 12
0.7386751067031306
 22
-0.6740616342272556
 32
0.0
 13
0.7385571580588337
 23
0.6741908663576354
 33
0.0
 11
-72.488781563689884
 21
3.5
 31
0.0
 11
-72.297926020544992
 21
3.3487280144817078
 31
0.0
 11
-72.070686677574088
 21
3.2173043838774902
 31
0.0
 11
-71.820013540318769
 21
3.1180846269308518
 31
0.0
 11
-71.536897298088206
 21
3.0523993405938654
 31
0.0
 11
-71.286226988875796
 21
3.0302396047651428
 31
0.0
 11
-71.025351861795571
 21
3.0412742513230455
 31
0.0
 11
-70.799030565829355
 21
3.0796006155023292
 31
0.0
 11
-70.578583348806092
 21
3.144823773063024
 31
0.0
 11
-70.371247879555085
 21
3.2350270904433955
 31
0.0
 11
-70.180550522394356
 21
3.3481046522626912
 31
0.0
 11
-69.988781563689884
 21
3.5
 31
0.0
  0
SPLINE
  5
B0
100
AcDbEntity
  8
CLASS1
390
0
  6
CONTINUOUS
 62
     3
100
AcDbSpline
210
0.0
220
0.0
230
1.0
 70
     0
 71
     3
 72
     0
 73
     0
 74
    12
 44
0.000001
 12
-0.6952818462962643
 22
-0.7187371941195598
 32
0.0
 13
-0.6944611746644067
 23
0.7195301778825767
 33
0.0
 11
-69.988781563689827
 21
3.5632575531798238
 31
0.0
 11
-70.182317332090065
 21
3.390496413818596
 31
0.0
 11
-70.406876449805566
 21
3.2439694858368284
 31
0.0
 11
-70.662716105327263
 21
3.1303633831740854
 31
0.0
 11
-70.940665829291447
 21
3.0577189408609229
 31
0.0
 11
-71.195727983701886
 21
3.0327859426719215
 31
0.0
 11
-71.45221126558414
 21
3.0451538070218476
 31
0.0
 11
-71.681414508455873
 21
3.0893262457728383
 31
0.0
 11
-71.898979778573562
 21
3.1621068999778572
 31
0.0
 11
-72.108398796984034
 21
3.2652956146176848
 31
0.0
 11
-72.297012604985355
 21
3.3917006939591374
 31
0.0
 11
-72.488781563689827
 21
3.5632575531798238
 31
0.0
  0
SPLINE
  5
B1
100
AcDbEntity
  8
CLASS1
390
0
  6
CONTINUOUS
 62
     3
100
AcDbSpline
210
0.0
220
0.0
230
1.0
 70
     0
 71
     3
 72
     0
 73
     0
 74
    12
 44
0.000001
 12
-0.7646435558897796
 22
0.6444534369806972
 32
0.0
 13
-0.7637601725191161
 23
-0.6455001153164653
 33
0.0
 11
-69.988781563689827
 21
16.484166326688865
 31
0.0
 11
-70.182315266730257
 21
16.626083969101273
 31
0.0
 11
-70.406871735244351
 21
16.746451345242804
 31
0.0
 11
-70.662711595863925
 21
16.8397767211938
 31
0.0
 11
-70.940661777035302
 21
16.899453031818211
 31
0.0
 11
-71.195724185643144
 21
16.919935364130652
 31
0.0
 11
-71.452207850645948
 21
16.909775897830627
 31
0.0
 11
-71.68141125454224
 21
16.873489704384724
 31
0.0
 11
-71.898976757959019
 21
16.813702540286044
 31
0.0
 11
-72.108395912325477
 21
16.728935954395297
 31
0.0
 11
-72.297009919215213
 21
16.62509768057555
 31
0.0
 11
-72.488781563689827
 21
16.484166326688865
 31
0.0
  0
SPLINE
  5
B2
100
AcDbEntity
  8
CLASS1
390
0
  6
CONTINUOUS
 62
     3
100
AcDbSpline
210
0.0
220
0.0
230
1.0
 70
     0
 71
     3
 72
     0
 73
     0
 74
    12
 44
0.000001
 12
0.6767590947792342
 22
0.7362045419810934
 32
0.0
 13
0.6759754031008347
 23
-0.7369241849760828
 33
0.0
 11
-72.488781563689827
 21
16.357959404769758
 31
0.0
 11
-72.295238285968708
 21
16.539386975923094
 31
0.0
 11
-72.070669536145942
 21
16.693263001367541
 31
0.0
 11
-71.8148306263069
 21
16.812560319346858
 31
0.0
 11
-71.53688256463829
 21
16.888843011790414
 31
0.0
 11
-71.281821334443237
 21
16.915023560300824
 31
0.0
 11
-71.025339445518057
 21
16.902033733136534
 31
0.0
 11
-70.796136788108015
 21
16.855645303216647
 31
0.0
 11
-70.578572366232038
 21
16.779214731444426
 31
0.0
 11
-70.369153842142111
 21
16.670851592985684
 31
0.0
 11
-70.180540757276162
 21
16.538108394489029
 31
0.0
 11
-69.988781563689827
 21
16.357959404769758
 31
0.0
  0
SPLINE
  5
B3
100
AcDbEntity
  8
CLASS1
390
0
  6
CONTINUOUS
 62
     3
100
AcDbSpline
210
0.0
220
0.0
230
1.0
 70
     0
 71
     3
 72
     0
 73
     0
 74
    12
 44
0.000001
 12
0.7919653396025879
 22
-0.6105660495541474
 32
0.0
 13
0.7910931204630132
 23
0.6116957370752985
 33
0.0
 11
-72.488781563689827
 21
3.5632575531798238
 31
0.0
 11
-72.295245795289645
 21
3.4330726969137686
 31
0.0
 11
-72.070686677574088
 21
3.3226567368840279
 31
0.0
 11
-71.814847022052447
 21
3.2370483981060829
 31
0.0
 11
-71.536897298088206
 21
3.1823068843835358
 31
0.0
 11
-71.281835143677824
 21
3.1635185226169824
 31
0.0
 11
-71.025351861795514
 21
3.1728383768890467
 31
0.0
 11
-70.796148618923837
 21
3.2061246970127968
 31
0.0
 11
-70.578583348806092
 21
3.2609688537581292
 31
0.0
 11
-70.36916433039562
 21
3.3387271275998387
 31
0.0
 11
-70.180550522394356
 21
3.4339801870911515
 31
0.0
 11
-69.988781563689827
 21
3.5632575531798238
 31
0.0
  0
SPLINE
  5
B4
100
AcDbEntity
  8
CLASS1
390
0
  6
CONTINUOUS
 62
     3
100
AcDbSpline
210
0.0
220
0.0
230
1.0
 70
     0
 71
     3
 72
     0
 73
     0
 74
    12
 44
0.000001
 12
-0.6605535447186715
 22
-0.7507789385428964
 32
0.0
 13
-0.6598086614575918
 23
0.751433649942256
 33
0.0
 11
-69.988781563689827
 21
3.7517989764008917
 31
0.0
 11
-70.182328378975853
 21
3.5625916513466791
 31
0.0
 11
-70.406901666402973
 21
3.4021179495285878
 31
0.0
 11
-70.662740224969752
 21
3.2777088774278127
 31
0.0
 11
-70.940687503568256
 21
3.1981580244951147
 31
0.0
 11
-71.195748298378078
 21
3.1708564033385755
 31
0.0
 11
-71.452229531099874
 21
3.1844039999898541
 31
0.0
 11
-71.681431912703829
 21
3.232781657614737
 31
0.0
 11
-71.898995934980064
 21
3.3124891060572281
 31
0.0
 11
-72.108414226197283
 21
3.4254979764739346
 31
0.0
 11
-72.297026970396871
 21
3.5639318828334581
 31
0.0
 11
-72.488781563689827
 21
3.7517989764008917
 31
0.0
  0
SPLINE
  5
B5
100
AcDbEntity
  8
CLASS1
390
0
  6
CONTINUOUS
 62
     3
100
AcDbSpline
210
0.0
220
0.0
230
1.0
 70
     0
 71
     3
 72
     0
 73
     0
 74
    12
 44
0.000001
 12
0.6466200020718208
 22
0.7628122789524553
 32
0.0
 13
0.6459129983719343
 23
-0.7634110285646767
 33
0.0
 11
-72.488781563689827
 21
16.10800203510837
 31
0.0
 11
-72.295231862833134
 21
16.304066978151127
 31
0.0
 11
-72.070654874101081
 21
16.470356332311326
 31
0.0
 11
-71.814816602059693
 21
16.599271261202148
 31
0.0
 11
-71.536869962197216
 21
16.681702898845629
 31
0.0
 11
-71.281809522526999
 21
16.709992711654024
 31
0.0
 11
-71.025328825064264
 21
16.695953458045892
 31
0.0
 11
-70.796126668434056
 21
16.645822356298595
 31
0.0
 11
-70.578562972109921
 21
16.563226440081337
 31
0.0
 11
-70.369144870847094
 21
16.446122497314946
 31
0.0
 11
-70.180532404529231
 21
16.302672403923339
 31
0.0
 11
-69.988781563689827
 21
16.10800203510837
 31
0.0
  0
SPLINE
  5
B6
100
AcDbEntity
  8
CLASS1
390
0
  6
CONTINUOUS
 62
     3
100
AcDbSpline
210
0.0
220
0.0
230
1.0
 70
     0
 71
     3
 72
     0
 73
     0
 74
    12
 44
0.000001
 12
-0.8208934213502761
 22
0.5710814222016314
 32
0.0
 13
-0.8200566833437523
 23
-0.5722823045519098
 33
0.0
 11
-69.988781563689827
 21
16.357959404769758
 31
0.0
 11
-70.182324841410889
 21
16.475779847092042
 31
0.0
 11
-70.406893591233484
 21
16.575708106426703
 31
0.0
 11
-70.662732501072583
 21
16.653180690570593
 31
0.0
 11
-70.94068056274125
 21
16.702719250273049
 31
0.0
 11
-71.195741792936246
 21
16.719721097269826
 31
0.0
 11
-71.452223681861483
 21
16.711285404874957
 31
0.0
 11
-71.681426339271525
 21
16.681160406248523
 31
0.0
 11
-71.898990761147502
 21
16.631525812587256
 31
0.0
 11
-72.108409285237485
 21
16.561153967649432
 31
0.0
 11
-72.297022370103377
 21
16.474949526600426
 31
0.0
 11
-72.488781563689827
 21
16.357959404769758
 31
0.0
  0
SPLINE
  5
B7
100
AcDbEntity
  8
CLASS1
390
0
  6
CONTINUOUS
 62
     3
100
AcDbSpline
210
0.0
220
0.0
230
1.0
 70
     0
 71
     3
 72
     0
 73
     0
 74
    12
 44
0.000001
 12
0.8508699890207135
 22
-0.5253763049318944
 32
0.0
 13
0.8500976503238209
 23
0.526625089521871
 33
0.0
 11
-72.488781563689827
 21
3.7517989764008917
 31
0.0
 11
-72.295234748403914
 21
3.6469196435222102
 31
0.0
 11
-72.070661460976851
 21
3.5579676180843762
 31
0.0
 11
-71.814822902410071
 21
3.4890065433360178
 31
0.0
 11
-71.536875623811568
 21
3.4449107855045895
 31
0.0
 11
-71.281814829001746
 21
3.4297772497782262
 31
0.0
 11
-71.02533359627995
 21
3.4372868052274725
 31
0.0
 11
-70.796131214675938
 21
3.4641029787369462
 31
0.0
 11
-70.578567192399703
 21
3.5082855388768621
 31
0.0
 11
-70.369148901182484
 21
3.5709273786433187
 31
0.0
 11
-70.180536156982896
 21
3.647662545966341
 31
0.0
 11
-69.988781563689827
 21
3.7517989764008917
 31
0.0
  0
SPLINE
  5
B8
100
AcDbEntity
  8
CLASS1
390
0
  6
CONTINUOUS
 62
     3
100
AcDbSpline
210
0.0
220
0.0
230
1.0
 70
     0
 71
     3
 72
     0
 73
     0
 74
    12
 44
0.000001
 12
-0.6348990146295845
 22
-0.7725951340918363
 32
0.0
 13
-0.6342269319721734
 23
0.7731469451282622
 33
0.0
 11
-69.988781563689827
 21
4.0619545253231308
 31
0.0
 11
-70.182333591211716
 21
3.8599875098350367
 31
0.0
 11
-70.406913564348997
 21
3.6886928606313063
 31
0.0
 11
-70.662751605365486
 21
3.5558999243622793
 31
0.0
 11
-70.940697730214879
 21
3.4709889126781945
 31
0.0
 11
-71.195757883533474
 21
3.4418486035780234
 31
0.0
 11
-71.452238149412779
 21
3.4563110063058389
 31
0.0
 11
-71.681440124643984
 21
3.5079512259845842
 31
0.0
 11
-71.899003558149104
 21
3.5930331287519266
 31
0.0
 11
-72.108421506248703
 21
3.7136615334731005
 31
0.0
 11
-72.297033748506294
 21
3.8614288547020124
 31
0.0
 11
-72.488781563689827
 21
4.0619545253231308
 31
0.0
  0
SPLINE
  5
B9
100
AcDbEntity
  8
CLASS1
390
0
  6
CONTINUOUS
 62
     3
100
AcDbSpline
210
0.0
220
0.0
230
1.0
 70
     0
 71
     3
 72
     0
 73
     0
 74
    12
 44
0.000001
 12
0.625327416986699
 22
0.7803624936942722
 32
0.0
 13
0.6246858190713899
 23
-0.780876192140026
 33
0.0
 11
-72.488781563689827
 21
15.739159353583034
 31
0.0
 11
-72.295227698868644
 21
15.946044141665425
 31
0.0
 11
-72.070645369030899
 21
16.121509343324874
 31
0.0
 11
-71.814807510445746
 21
16.257533544299008
 31
0.0
 11
-71.536861792283048
 21
16.344510440093927
 31
0.0
 11
-71.281801865087346
 21
16.374359406596341
 31
0.0
 11
-71.025321940015999
 21
16.359544424129183
 31
0.0
 11
-70.796120108030436
 21
16.30664676498435
 31
0.0
 11
-70.578556882066096
 21
16.219493468371581
 31
0.0
 11
-70.369139054915649
 21
16.095928382919055
 31
0.0
 11
-70.180526989592863
 21
15.944563826151921
 31
0.0
 11
-69.988781563689827
 21
15.739159353583034
 31
0.0
  0
SPLINE
  5
BA
100
AcDbEntity
  8
CLASS1
390
0
  6
CONTINUOUS
 62
     3
100
AcDbSpline
210
0.0
220
0.0
230
1.0
 70
     0
 71
     3
 72
     0
 73
     0
 74
    12
 44
0.000001
 12
-0.8811111934930117
 22
0.4729091505789673
 32
0.0
 13
-0.8804333026384886
 23
-0.4741700112882336
 33
0.0
 11
-69.988781563689827
 21
16.10800203510837
 31
0.0
 11
-70.182331264546519
 21
16.19942861954496
 31
0.0
 11
-70.406908253278516
 21
16.27697061885948
 31
0.0
 11
-70.66274652531996
 21
16.337084637451767
 31
0.0
 11
-70.940693165182438
 21
16.375523141359167
 31
0.0
 11
-71.195753604852655
 21
16.388714897719524
 31
0.0
 11
-71.452234302315389
 21
16.382168286247293
 31
0.0
 11
-71.681436458945598
 21
16.358791769590766
 31
0.0
 11
-71.899000155269732
 21
16.320276661326375
 31
0.0
 11
-72.108418256532559
 21
16.265670196014241
 31
0.0
 11
-72.297030722850423
 21
16.198778318902669
 31
0.0
 11
-72.488781563689827
 21
16.10800203510837
 31
0.0
  0
SPLINE
  5
BB
100
AcDbEntity
  8
CLASS1
390
0
  6
CONTINUOUS
 62
     3
100
AcDbSpline
210
0.0
220
0.0
230
1.0
 70
     0
 71
     3
 72
     0
 73
     0
 74
    12
 44
0.000001
 12
0.9105878879220327
 22
-0.4133154949547519
 32
0.0
 13
0.9100316037294547
 23
0.4145388766009731
 33
0.0
 11
-72.488781563689827
 21
4.0619545253231308
 31
0.0
 11
-72.295229536167994
 21
3.9844266518138056
 31
0.0
 11
-72.07064956303077
 21
3.9186727965904993
 31
0.0
 11
-71.814811522014281
 21
3.8676983642500318
 31
0.0
 11
-71.536865397164888
 21
3.835104080686051
 31
0.0
 11
-71.281805243846293
 21
3.8239181640526567
 31
0.0
 11
-71.025324977966989
 21
3.8294697603200802
 31
0.0
 11
-70.796123002735783
 21
3.8492925834160587
 31
0.0
 11
-70.578559569230606
 21
3.8819524659208469
 31
0.0
 11
-70.369141621131007
 21
3.9282573720969935
 31
0.0
 11
-70.180529378873416
 21
3.9849799322703348
 31
0.0
 11
-69.988781563689827
 21
4.0619545253231308
 31
0.0
  0
SPLINE
  5
BC
100
AcDbEntity
  8
CLASS1
390
0
  6
CONTINUOUS
 62
     3
100
AcDbSpline
210
0.0
220
0.0
230
1.0
 70
     0
 71
     3
 72
     0
 73
     0
 74
    12
 44
0.000001
 12
-0.6178455822689905
 22
-0.7862994572493943
 32
0.0
 13
-0.6172289898300513
 23
0.786783562432118
 33
0.0
 11
-69.988781563689827
 21
4.4876873749832384
 31
0.0
 11
-70.182336827982795
 21
4.2768930730541683
 31
0.0
 11
-70.406920952922405
 21
4.098112380035559
 31
0.0
 11
-70.662758672550808
 21
3.9595193994255169
 31
0.0
 11
-70.940704080942396
 21
3.8709001742283817
 31
0.0
 11
-71.19576383590055
 21
3.8404878417184136
 31
0.0
 11
-71.452243501378859
 21
3.8555831168092709
 31
0.0
 11
-71.681445224254048
 21
3.909480410833396
 31
0.0
 11
-71.899008292134226
 21
3.9982804169617339
 31
0.0
 11
-72.108426027157293
 21
4.1241800947056504
 31
0.0
 11
-72.297037957708312
 21
4.2784043693391141
 31
0.0
 11
-72.488781563689827
 21
4.4876873749832384
 31
0.0
  0
SPLINE
  5
BD
100
AcDbEntity
  8
CLASS1
390
0
  6
CONTINUOUS
 62
     3
100
AcDbSpline
210
0.0
220
0.0
230
1.0
 70
     0
 71
     3
 72
     0
 73
     0
 74
    12
 44
0.000001
 12
-0.9380412639482455
 22
0.3465235737008061
 32
0.0
 13
-0.9376252869326037
 23
-0.3476475532842889
 33
0.0
 11
-69.988781563689827
 21
15.739159353583034
 31
0.0
 11
-70.18233542851101
 21
15.802410380826927
 31
0.0
 11
-70.406917758348811
 21
15.856055476502547
 31
0.0
 11
-70.662755616933907
 21
15.897642248161219
 31
0.0
 11
-70.940701335096605
 21
15.92423375378371
 31
0.0
 11
-71.195761262292308
 21
15.933359498653374
 31
0.0
 11
-71.452241187363711
 21
15.928830103967925
 31
0.0
 11
-71.681443019349217
 21
15.912657666589951
 31
0.0
 11
-71.899006245313558
 21
15.886012229825155
 31
0.0
 11
-72.108424072464004
 21
15.848234592045287
 31
0.0
 11
-72.297036137786847
 21
15.801957802956167
 31
0.0
 11
-72.488781563689827
 21
15.739159353583034
 31
0.0
  0
SPLINE
  5
BE
100
AcDbEntity
  8
CLASS1
390
0
  6
CONTINUOUS
 62
     3
100
AcDbSpline
210
0.0
220
0.0
230
1.0
 70
     0
 71
     3
 72
     0
 73
     0
 74
    12
 44
0.000001
 12
0.6124023012854124
 22
0.790546280353232
 32
0.0
 13
0.6118045253001344
 23
-0.7910089903548994
 33
0.0
 11
-72.488781563689827
 21
15.258610463437151
 31
0.0
 11
-72.295225300444656
 21
15.472286973704627
 31
0.0
 11
-72.070639894148428
 21
15.653511944247839
 31
0.0
 11
-71.814802273707642
 21
15.793998704588716
 31
0.0
 11
-71.536857086431439
 21
15.883828703216636
 31
0.0
 11
-71.281797454417358
 21
15.914656365678638
 31
0.0
 11
-71.025317974237964
 21
15.899354450638896
 31
0.0
 11
-70.796116329246615
 21
15.844720196444882
 31
0.0
 11
-70.578553374208013
 21
15.754706187735678
 31
0.0
 11
-70.369135704946359
 21
15.627085380041763
 31
0.0
 11
-70.18052387059663
 21
15.470752837474038
 31
0.0
 11
-69.988781563689827
 21
15.258610463437151
 31
0.0
  0
SPLINE
  5
BF
100
AcDbEntity
  8
CLASS1
390
0
  6
CONTINUOUS
 62
     3
100
AcDbSpline
210
0.0
220
0.0
230
1.0
 70
     0
 71
     3
 72
     0
 73
     0
 74
    12
 44
0.000001
 12
0.9620495569481727
 22
-0.2728747880912134
 32
0.0
 13
0.961778202473573
 23
0.2738296719617923
 33
0.0
 11
-72.488781563689827
 21
4.4876873749832384
 31
0.0
 11
-72.295226299396859
 21
4.439021675797278
 31
0.0
 11
-72.070642174457305
 21
4.3977469005919261
 31
0.0
 11
-71.814804454828959
 21
4.3657501898557598
 31
0.0
 11
-71.536859046437314
 21
4.3452908296355872
 31
0.0
 11
-71.28179929147916
 21
4.3382695894410972
 31
0.0
 11
-71.025319626000851
 21
4.3417546082958438
 31
0.0
 11
-70.796117903125662
 21
4.3541977790737292
 31
0.0
 11
-70.578554835245484
 21
4.3746988758605312
 31
0.0
 11
-70.369137100222417
 21
4.4037651067245633
 31
0.0
 11
-70.180525169671455
 21
4.43937058603683
 31
0.0
 11
-69.988781563689827
 21
4.4876873749832384
 31
0.0
  0
SPLINE
  5
C0
100
AcDbEntity
  8
CLASS1
390
0
  6
CONTINUOUS
 62
     3
100
AcDbSpline
210
0.0
220
0.0
230
1.0
 70
     0
 71
     3
 72
     0
 73
     0
 74
    12
 44
0.000001
 12
-0.6089579653248682
 22
-0.793202493987126
 32
0.0
 13
-0.6083723594122289
 23
0.7936517323758563
 33
0.0
 11
-69.988781563689827
 21
5.0207111197266272
 31
0.0
 11
-70.182338450987515
 21
4.8051937484600558
 31
0.0
 11
-70.406924657756576
 21
4.6224076224991677
 31
0.0
 11
-70.662762216234512
 21
4.4807113086365007
 31
0.0
 11
-70.940707265378933
 21
4.3901079913154035
 31
0.0
 11
-71.195766820589029
 21
4.3590150584013259
 31
0.0
 11
-71.452246185011006
 21
4.374448953985052
 31
0.0
 11
-71.681447781347799
 21
4.4295539032422653
 31
0.0
 11
-71.899010665893343
 21
4.5203432930975396
 31
0.0
 11
-72.108428294073406
 21
4.6490633832265758
 31
0.0
 11
-72.297040068325373
 21
4.8067424725254568
 31
0.0
 11
-72.488781563689827
 21
5.020711119726684
 31
0.0
  0
SPLINE
  5
C1
100
AcDbEntity
  8
CLASS1
390
0
  6
CONTINUOUS
 62
     3
100
AcDbSpline
210
0.0
220
0.0
230
1.0
 70
     0
 71
     3
 72
     0
 73
     0
 74
    12
 44
0.000001
 12
-0.9811556096955755
 22
0.1932192266905742
 32
0.0
 13
-0.9810142514075029
 23
-0.1939356556576865
 33
0.0
 11
-69.988781563689827
 21
15.258610463437151
 31
0.0
 11
-70.182337826935054
 21
15.292453497926374
 31
0.0
 11
-70.406923233231225
 21
15.321156713458663
 31
0.0
 11
-70.662760853672012
 21
15.34340763036829
 31
0.0
 11
-70.940706040948214
 21
15.357635304425344
 31
0.0
 11
-71.195765672962295
 21
15.362517926490909
 31
0.0
 11
-71.452245153141689
 21
15.360094341241393
 31
0.0
 11
-71.681446798133095
 21
15.351441125468341
 31
0.0
 11
-71.89900975317164
 21
15.337184307077564
 31
0.0
 11
-72.108427422433351
 21
15.31697115687723
 31
0.0
 11
-72.297039256783023
 21
15.292210514618091
 31
0.0
 11
-72.488781563689827
 21
15.258610463437151
 31
0.0
  0
SPLINE
  5
C2
100
AcDbEntity
  8
CLASS1
390
0
  6
CONTINUOUS
 62
     3
100
AcDbSpline
210
0.0
220
0.0
230
1.0
 70
     0
 71
     3
 72
     0
 73
     0
 74
    12
 44
0.000001
 12
0.6074865453186991
 22
0.7943299674925731
 32
0.0
 13
0.6069061995409493
 23
-0.7947734676992945
 33
0.0
 11
-72.488781563689827
 21
14.675708702201234
 31
0.0
 11
-72.295224411655909
 21
14.892016618637228
 31
0.0
 11
-72.070637865309152
 21
15.07547317211754
 31
0.0
 11
-71.814800333117148
 21
15.217688920469755
 31
0.0
 11
-71.536855342571073
 21
15.308624334216063
 31
0.0
 11
-71.281795819942772
 21
15.339831185711773
 31
0.0
 11
-71.02531650462754
 21
15.324340611985804
 31
0.0
 11
-70.796114928931047
 21
15.269033525951954
 31
0.0
 11
-70.578552074290087
 21
15.177911153964999
 31
0.0
 11
-70.369134463537819
 21
15.048718984510401
 31
0.0
 11
-70.180522714780636
 21
14.890461629924744
 31
0.0
 11
-69.988781563689827
 21
14.675708702201234
 31
0.0
  0
SPLINE
  5
C3
100
AcDbEntity
  8
CLASS1
390
0
  6
CONTINUOUS
 62
     3
100
AcDbSpline
210
0.0
220
0.0
230
1.0
 70
     0
 71
     3
 72
     0
 73
     0
 74
    12
 44
0.000001
 12
0.994047423890423
 22
-0.108948240264879
 32
0.0
 13
0.9940013505774421
 23
0.1093677971352677
 33
0.0
 11
-72.488781563689827
 21
5.020711119726684
 31
0.0
 11
-72.295224676392195
 21
5.0018557929479357
 31
0.0
 11
-72.070638469623077
 21
4.9858640790765207
 31
0.0
 11
-71.814800911145198
 21
4.9734672579501193
 31
0.0
 11
-71.536855862000778
 21
4.9655404948066462
 31
0.0
 11
-71.281796306790625
 21
4.9628202156609404
 31
0.0
 11
-71.025316942368704
 21
4.9641705065585029
 31
0.0
 11
-70.796115346031911
 21
4.9689915649227032
 31
0.0
 11
-70.578552461486311
 21
4.9769346073035194
 31
0.0
 11
-70.369134833306305
 21
4.9881961559577803
 31
0.0
 11
-70.180523059054394
 21
5.0019912887465807
 31
0.0
 11
-69.988781563689827
 21
5.0207111197266272
 31
0.0
  0
SPLINE
  5
C4
100
AcDbEntity
  8
CLASS1
390
0
  6
CONTINUOUS
 62
     3
100
AcDbSpline
210
0.0
220
0.0
230
1.0
 70
     0
 71
     3
 72
     0
 73
     0
 74
    12
 44
0.000001
 12
-0.6079767019420639
 22
-0.7939548664097039
 32
0.0
 13
-0.6073945998911109
 23
0.7944002769530719
 33
0.0
 11
-69.988781563689827
 21
5.6506510586674494
 31
0.0
 11
-70.182338627657714
 21
5.4346067643488709
 31
0.0
 11
-70.406925061041989
 21
5.2513737775021809
 31
0.0
 11
-70.662762601978159
 21
5.1093312443251762
 31
0.0
 11
-70.940707612017263
 21
5.0185065743620498
 31
0.0
 11
-71.195767145484069
 21
4.9873377111544528
 31
0.0
 11
-71.452246477134963
 21
5.002809384490547
 31
0.0
 11
-71.681448059697573
 21
5.0580490642241784
 31
0.0
 11
-71.899010924286472
 21
5.1490603970725033
 31
0.0
 11
-72.108428540836258
 21
5.2780951428197227
 31
0.0
 11
-72.297040298074364
 21
5.4361596639971594
 31
0.0
 11
-72.488781563689827
 21
5.6506510586674494
 31
0.0
  0
SPLINE
  5
C5
100
AcDbEntity
  8
CLASS1
390
0
  6
CONTINUOUS
 62
     3
100
AcDbSpline
210
0.0
220
0.0
230
1.0
 70
     0
 71
     3
 72
     0
 73
     0
 74
    12
 44
0.000001
 12
-0.9997594795395606
 22
0.021931326243228
 32
0.0
 13
-0.9997575923480682
 23
-0.0220171874315049
 33
0.0
 11
-69.988781563689827
 21
14.675708702201234
 31
0.0
 11
-70.182338715723745
 21
14.679484370927128
 31
0.0
 11
-70.406925262070558
 21
14.682686616979595
 31
0.0
 11
-70.662762794262562
 21
14.685169002100906
 31
0.0
 11
-70.940707784808637
 21
14.686756285652109
 31
0.0
 11
-71.195767307436881
 21
14.687301003271216
 31
0.0
 11
-71.452246622752114
 21
14.687030614301079
 31
0.0
 11
-71.681448198448606
 21
14.686065225523294
 31
0.0
 11
-71.899011053089566
 21
14.68447467860392
 31
0.0
 11
-72.108428663841892
 21
14.682219620897854
 31
0.0
 11
-72.297040412599017
 21
14.679457228498165
 31
0.0
 11
-72.488781563689827
 21
14.675708702201234
 31
0.0
  0
SPLINE
  5
C6
100
AcDbEntity
  8
CLASS1
390
0
  6
CONTINUOUS
 62
     3
100
AcDbSpline
210
0.0
220
0.0
230
1.0
 70
     0
 71
     3
 72
     0
 73
     0
 74
    12
 44
0.000001
 12
0.6104322268980263
 22
0.7920684922178868
 32
0.0
 13
0.609841387225981
 23
-0.792523490141643
 33
0.0
 11
-72.488781563689827
 21
14.00179958961678
 31
0.0
 11
-72.295224942750849
 21
14.21652737887166
 31
0.0
 11
-72.070639077640351
 21
14.398643894125541
 31
0.0
 11
-71.814801492715446
 21
14.539821406349517
 31
0.0
 11
-71.536856384613543
 21
14.630093031853789
 31
0.0
 11
-71.281796796621904
 21
14.661072184978309
 31
0.0
 11
-71.025317382792252
 21
14.645694898483271
 31
0.0
 11
-70.796115765688626
 21
14.590791839730059
 31
0.0
 11
-70.578552851055179
 21
14.500335026318965
 31
0.0
 11
-70.369135205340626
 21
14.372086440359453
 31
0.0
 11
-70.180523405437725
 21
14.214984911820125
 31
0.0
 11
-69.988781563689827
 21
14.00179958961678
 31
0.0
  0
SPLINE
  5
C7
100
AcDbEntity
  8
CLASS1
390
0
  6
CONTINUOUS
 62
     3
100
AcDbSpline
210
0.0
220
0.0
230
1.0
 70
     0
 71
     3
 72
     0
 73
     0
 74
    12
 44
0.000001
 12
0.9978426169940607
 22
0.0656514410385962
 32
0.0
 13
0.9978257665237797
 23
-0.0659070531979051
 33
0.0
 11
-72.488781563689827
 21
5.6506510586674494
 31
0.0
 11
-72.29522449972194
 21
5.6619734603594338
 31
0.0
 11
-72.070638066337722
 21
5.6715762942914694
 31
0.0
 11
-71.814800525401552
 21
5.6790204280190437
 31
0.0
 11
-71.53685551536239
 21
5.6837803472758992
 31
0.0
 11
-71.281795981895584
 21
5.6854138381793859
 31
0.0
 11
-71.025316650244747
 21
5.6846030021380329
 31
0.0
 11
-70.796115067682138
 21
5.6817080131949069
 31
0.0
 11
-70.578552203093182
 21
5.6769383113506819
 31
0.0
 11
-70.36913458654351
 21
5.6701758868757679
 31
0.0
 11
-70.180522829305346
 21
5.6618920763373808
 31
0.0
 11
-69.988781563689827
 21
5.6506510586674494
 31
0.0
  0
SPLINE
  5
C8
100
AcDbEntity
  8
CLASS1
390
0
  6
CONTINUOUS
 62
     3
100
AcDbSpline
210
0.0
220
0.0
230
1.0
 70
     0
 71
     3
 72
     0
 73
     0
 74
    12
 44
0.000001
 12
-0.6148718980898588
 22
-0.788627002415828
 32
0.0
 13
-0.614265521210756
 23
0.7890994040370822
 33
0.0
 11
-69.988781563689827
 21
6.365246127440173
 31
0.0
 11
-70.18233737567175
 21
6.1528813123142072
 31
0.0
 11
-70.40692220313224
 21
5.9727687342756326
 31
0.0
 11
-70.662759868379624
 21
5.8331438344874869
 31
0.0
 11
-70.940705155541593
 21
5.7438648597411657
 31
0.0
 11
-71.195764843094025
 21
5.7132262142466175
 31
0.0
 11
-71.452244406979673
 21
5.728434087293067
 31
0.0
 11
-71.681446087154029
 21
5.7827329503699048
 31
0.0
 11
-71.899009093167308
 21
5.8721944656086862
 31
0.0
 11
-72.108426792135788
 21
5.9990319857922714
 31
0.0
 11
-72.297038669943163
 21
6.1544050540674675
 31
0.0
 11
-72.488781563689827
 21
6.365246127440173
 31
0.0
  0
SPLINE
  5
C9
100
AcDbEntity
  8
CLASS1
390
0
  6
CONTINUOUS
 62
     3
100
AcDbSpline
210
0.0
220
0.0
230
1.0
 70
     0
 71
     3
 72
     0
 73
     0
 74
    12
 44
0.000001
 12
-0.9884490493451309
 22
-0.1515535444940405
 32
0.0
 13
-0.9883608437042137
 23
0.1521277181591008
 33
0.0
 11
-69.988781563689827
 21
14.00179958961678
 31
0.0
 11
-70.182338184628861
 21
13.975434332299471
 31
0.0
 11
-70.406924049739359
 21
13.953073235940849
 31
0.0
 11
-70.662761634664264
 21
13.935738817093068
 31
0.0
 11
-70.940706742766167
 21
13.924654855193523
 31
0.0
 11
-71.195766330757806
 21
13.920851093479996
 31
0.0
 11
-71.452245744587458
 21
13.922739186850208
 31
0.0
 11
-71.681447361691028
 21
13.92948043481141
 31
0.0
 11
-71.899010276324589
 21
13.940587134926773
 31
0.0
 11
-72.108427922039084
 21
13.956334081240243
 31
0.0
 11
-72.297039721941985
 21
13.975623723439071
 31
0.0
 11
-72.488781563689827
 21
14.00179958961678
 31
0.0
  0
SPLINE
  5
CA
100
AcDbEntity
  8
CLASS1
390
0
  6
CONTINUOUS
 62
     3
100
AcDbSpline
210
0.0
220
0.0
230
1.0
 70
     0
 71
     3
 72
     0
 73
     0
 74
    12
 44
0.000001
 12
0.6213287213215456
 22
0.7835500112060067
 32
0.0
 13
0.6207003621672251
 23
-0.7840478686951936
 33
0.0
 11
-72.488781563689827
 21
13.25
 31
0.0
 11
-72.295226947034791
 21
13.458966884105394
 31
0.0
 11
-72.070643652820308
 21
13.636197822285226
 31
0.0
 11
-71.814805868886594
 21
13.773590082326223
 31
0.0
 11
-71.536860317141532
 21
13.861441636109816
 31
0.0
 11
-71.281800482476513
 21
13.891590635345551
 31
0.0
 11
-71.025320696865549
 21
13.876626376989066
 31
0.0
 11
-70.796118923497033
 21
13.823196340702793
 31
0.0
 11
-70.578555782459716
 21
13.735166053377839
 31
0.0
 11
-70.369138004802551
 21
13.610357630386318
 31
0.0
 11
-70.180526011882705
 21
13.457470069115345
 31
0.0
 11
-69.988781563689827
 21
13.25
 31
0.0
  0
SPLINE
  5
CB
100
AcDbEntity
  8
CLASS1
390
0
  6
CONTINUOUS
 62
     3
100
AcDbSpline
210
0.0
220
0.0
230
1.0
 70
     0
 71
     3
 72
     0
 73
     0
 74
    12
 44
0.000001
 12
0.9723031361193479
 22
0.2337233653113887
 32
0.0
 13
0.9720998893583159
 23
-0.2345672720341648
 33
0.0
 11
-72.488781563689827
 21
6.365246127440173
 31
0.0
 11
-72.295225751707903
 21
6.4065256658543035
 31
0.0
 11
-72.070640924247471
 21
6.4415360044530416
 31
0.0
 11
-71.814803259000087
 21
6.4686763356371557
 31
0.0
 11
-71.536857971838117
 21
6.486030410347837
 31
0.0
 11
-71.281798284285685
 21
6.4919859597306413
 31
0.0
 11
-71.025318720400037
 21
6.4890298486665188
 31
0.0
 11
-70.796117040225681
 21
6.4784752188758148
 31
0.0
 11
-70.578554034212402
 21
6.4610856618878074
 31
0.0
 11
-70.369136335243923
 21
6.4364309455042417
 31
0.0
 11
-70.180524457436491
 21
6.4062294804612634
 31
0.0
 11
-69.988781563689827
 21
6.365246127440173
 31
0.0
  0
SPLINE
  5
CC
100
AcDbEntity
  8
CLASS1
390
0
  6
CONTINUOUS
 62
     3
100
AcDbSpline
210
0.0
220
0.0
230
1.0
 70
     0
 71
     3
 72
     0
 73
     0
 74
    12
 44
0.000001
 12
-0.6298484186002665
 22
-0.776718076001031
 32
0.0
 13
-0.6291922069426771
 23
0.7772497453988669
 33
0.0
 11
-69.988781563689827
 21
7.1505875458709625
 31
0.0
 11
-70.182334567440307
 21
6.9460369952975043
 31
0.0
 11
-70.406915792783821
 21
6.7725513605623746
 31
0.0
 11
-70.662753736867217
 21
6.6380608903837697
 31
0.0
 11
-70.940699645627717
 21
6.5520645735167591
 31
0.0
 11
-71.195759678798368
 21
6.5225519736630986
 31
0.0
 11
-71.452239763593013
 21
6.5371996029558659
 31
0.0
 11
-71.681441662712245
 21
6.5895004141757454
 31
0.0
 11
-71.899004985942952
 21
6.6756705166455959
 31
0.0
 11
-72.108422869777655
 21
6.7978416965881934
 31
0.0
 11
-72.297035018022996
 21
6.9474988132569706
 31
0.0
 11
-72.488781563689827
 21
7.1505875458709625
 31
0.0
  0
SPLINE
  5
CD
100
AcDbEntity
  8
CLASS1
390
0
  6
CONTINUOUS
 62
     3
100
AcDbSpline
210
0.0
220
0.0
230
1.0
 70
     0
 71
     3
 72
     0
 73
     0
 74
    12
 44
0.000001
 12
0.6404868982476353
 22
0.7679690964961567
 32
0.0
 13
0.6397978287535859
 23
-0.7685432572875759
 33
0.0
 11
-72.488781563689827
 21
12.434942857203396
 31
0.0
 11
-72.295230634460097
 21
12.634080187669269
 31
0.0
 11
-72.070652070098959
 21
12.802975102112498
 31
0.0
 11
-71.814813920028541
 21
12.933908769541404
 31
0.0
 11
-71.536867552070134
 21
13.017631072064717
 31
0.0
 11
-71.281807263580674
 21
13.046363619885142
 31
0.0
 11
-71.025326793974443
 21
13.032104091442648
 31
0.0
 11
-70.796124733114596
 21
12.981187402091678
 31
0.0
 11
-70.578561175546838
 21
12.897297378782525
 31
0.0
 11
-70.369143155147071
 21
12.778358739359874
 31
0.0
 11
-70.180530807122636
 21
12.632661266487275
 31
0.0
 11
-69.988781563689827
 21
12.434942857203396
 31
0.0
  0
SPLINE
  5
CE
100
AcDbEntity
  8
CLASS1
390
0
  6
CONTINUOUS
 62
     3
100
AcDbSpline
210
0.0
220
0.0
230
1.0
 70
     0
 71
     3
 72
     0
 73
     0
 74
    12
 44
0.000001
 12
-0.9505681971680223
 22
-0.3105158651868465
 32
0.0
 13
-0.9502250993955999
 23
0.3115642156580603
 33
0.0
 11
-69.988781563689827
 21
13.25
 31
0.0
 11
-70.182336180344919
 21
13.19400749215913
 31
0.0
 11
-70.406919474559459
 21
13.146518605400047
 31
0.0
 11
-70.662757258493116
 21
13.109704460275736
 31
0.0
 11
-70.940702810238236
 21
13.086164707385592
 31
0.0
 11
-71.195762644903198
 21
13.078086307387821
 31
0.0
 11
-71.452242430514161
 21
13.082095968329781
 31
0.0
 11
-71.681444203882677
 21
13.096412503404167
 31
0.0
 11
-71.899007344920051
 21
13.120000147802443
 31
0.0
 11
-72.10842512257716
 21
13.153442463951592
 31
0.0
 11
-72.297037115497005
 21
13.194408562526917
 31
0.0
 11
-72.488781563689827
 21
13.25
 31
0.0
  0
SPLINE
  5
CF
100
AcDbEntity
  8
CLASS1
390
0
  6
CONTINUOUS
 62
     3
100
AcDbSpline
210
0.0
220
0.0
230
1.0
 70
     0
 71
     3
 72
     0
 73
     0
 74
    12
 44
0.000001
 12
0.9246537245442827
 22
0.3808089937046993
 32
0.0
 13
0.9241660226202053
 23
-0.3819910504636858
 33
0.0
 11
-72.488781563689827
 21
7.1505875458709625
 31
0.0
 11
-72.295228559939346
 21
7.2210199487470845
 31
0.0
 11
-72.070647334595833
 21
7.2807558432954238
 31
0.0
 11
-71.814809390512437
 21
7.3270646259022669
 31
0.0
 11
-71.536863481751936
 21
7.3566755324407609
 31
0.0
 11
-71.281803448581343
 21
7.3668375355103421
 31
0.0
 11
-71.025323363786697
 21
7.3617939522756046
 31
0.0
 11
-70.796121464667408
 21
7.3437853387752057
 31
0.0
 11
-70.578558141436702
 21
7.3141145930547964
 31
0.0
 11
-70.369140257602055
 21
7.2720476822523779
 31
0.0
 11
-70.180528109356658
 21
7.2205166044579983
 31
0.0
 11
-69.988781563689827
 21
7.1505875458709625
 31
0.0
  0
SPLINE
  5
D0
100
AcDbEntity
  8
CLASS1
390
0
  6
CONTINUOUS
 62
     3
100
AcDbSpline
210
0.0
220
0.0
230
1.0
 70
     0
 71
     3
 72
     0
 73
     0
 74
    12
 44
0.000001
 12
-0.6533062964322096
 22
-0.7570937082303814
 32
0.0
 13
-0.6525806102827756
 23
0.7577193062625237
 33
0.0
 11
-69.988781563689827
 21
7.9913895365628491
 31
0.0
 11
-70.182329896810018
 21
7.7986359401127743
 31
0.0
 11
-70.406905131153394
 21
7.635154797285054
 31
0.0
 11
-70.66274353900485
 21
7.5084156171084828
 31
0.0
 11
-70.9406904816218
 21
7.4273750275876864
 31
0.0
 11
-71.195751089625105
 21
7.3995623841195766
 31
0.0
 11
-71.452232040795877
 21
7.4133642307158425
 31
0.0
 11
-71.681434304061895
 21
7.4626486447012894
 31
0.0
 11
-71.89899815488468
 21
7.5438498028636332
 31
0.0
 11
-72.108416346184526
 21
7.6589763529116226
 31
0.0
 11
-72.297028944216265
 21
7.8000042737839976
 31
0.0
 11
-72.488781563689827
 21
7.9913895365628491
 31
0.0
  0
SPLINE
  5
D1
100
AcDbEntity
  8
CLASS1
390
0
  6
CONTINUOUS
 62
     3
100
AcDbSpline
210
0.0
220
0.0
230
1.0
 70
     0
 71
     3
 72
     0
 73
     0
 74
    12
 44
0.000001
 12
0.6683690085557399
 22
0.7438298652260591
 32
0.0
 13
0.6676046854360395
 23
-0.7445159393752741
 33
0.0
 11
-72.488781563689827
 21
11.572492321397817
 31
0.0
 11
-72.295236428748126
 21
11.757922770839116
 31
0.0
 11
-72.070665296685661
 21
11.915193466072992
 31
0.0
 11
-71.814826571265371
 21
12.037120909614032
 31
0.0
 11
-71.536878920709967
 21
12.115085152507959
 31
0.0
 11
-71.281817919092305
 21
12.141842520982721
 31
0.0
 11
-71.025336374674112
 21
12.128565707444864
 31
0.0
 11
-70.79613386206205
 21
12.081153770035939
 31
0.0
 11
-70.578569649975748
 21
12.003037163122144
 31
0.0
 11
-70.369151248143623
 21
11.892283679182469
 31
0.0
 11
-70.180538342127022
 21
11.75661246892173
 31
0.0
 11
-69.988781563689827
 21
11.572492321397817
 31
0.0
  0
SPLINE
  5
D2
100
AcDbEntity
  8
CLASS1
390
0
  6
CONTINUOUS
 62
     3
100
AcDbSpline
210
0.0
220
0.0
230
1.0
 70
     0
 71
     3
 72
     0
 73
     0
 74
    12
 44
0.000001
 12
-0.8960188922538537
 22
-0.4440159284577266
 32
0.0
 13
-0.8953987970320239
 23
0.4452650831511545
 33
0.0
 11
-69.988781563689827
 21
12.434942857203396
 31
0.0
 11
-70.182332492919556
 21
12.3504140754535
 31
0.0
 11
-70.406911057280809
 21
12.27872243768644
 31
0.0
 11
-70.662749207351226
 21
12.22314439326891
 31
0.0
 11
-70.940695575309633
 21
12.187606384292678
 31
0.0
 11
-71.195755863799093
 21
12.175410141337352
 31
0.0
 11
-71.452236333405267
 21
12.181462952052243
 31
0.0
 11
-71.681438394265172
 21
12.203075804406467
 31
0.0
 11
-71.899001951832929
 21
12.238685006632466
 31
0.0
 11
-72.108419972232696
 21
12.289171463741638
 31
0.0
 11
-72.297032320257131
 21
12.351016371761432
 31
0.0
 11
-72.488781563689827
 21
12.434942857203396
 31
0.0
  0
SPLINE
  5
D3
100
AcDbEntity
  8
CLASS1
390
0
  6
CONTINUOUS
 62
     3
100
AcDbSpline
210
0.0
220
0.0
230
1.0
 70
     0
 71
     3
 72
     0
 73
     0
 74
    12
 44
0.000001
 12
0.8660160577366362
 22
0.5000161874802607
 32
0.0
 13
0.8652872498521532
 23
-0.5012763461837168
 33
0.0
 11
-72.488781563689827
 21
7.9913895365628491
 31
0.0
 11
-72.295233230569636
 21
8.089602399435762
 31
0.0
 11
-72.070657996226203
 21
8.1729002022188979
 31
0.0
 11
-71.814819588374746
 21
8.2374770399669615
 31
0.0
 11
-71.536872645757796
 21
8.2787692827697583
 31
0.0
 11
-71.281812037754548
 21
8.2929405324344998
 31
0.0
 11
-71.025331086583719
 21
8.285908140343679
 31
0.0
 11
-70.796128823317758
 21
8.2607964771546563
 31
0.0
 11
-70.578564972494917
 21
8.2194224205425144
 31
0.0
 11
-70.369146781195127
 21
8.1607625133806323
 31
0.0
 11
-70.180534183163388
 21
8.0889051986068239
 31
0.0
 11
-69.988781563689827
 21
7.9913895365628491
 31
0.0
  0
SPLINE
  5
D4
100
AcDbEntity
  8
CLASS1
390
0
  6
CONTINUOUS
 62
     3
100
AcDbSpline
210
0.0
220
0.0
230
1.0
 70
     0
 71
     3
 72
     0
 73
     0
 74
    12
 44
0.000001
 12
-0.68572893552376
 22
-0.7278570099857876
 32
0.0
 13
-0.684926306272953
 23
0.7286123489039209
 33
0.0
 11
-69.988781563689827
 21
8.8712868451649456
 31
0.0
 11
-70.18232279065495
 21
8.6940832780832693
 31
0.0
 11
-70.406888909995132
 21
8.5437894497525804
 31
0.0
 11
-70.662728023472994
 21
8.4272675499342995
 31
0.0
 11
-70.940676539099968
 21
8.3527592996422868
 31
0.0
 11
-71.195738021692421
 21
8.3271874356132685
 31
0.0
 11
-71.452220291025526
 21
8.3398744227932298
 31
0.0
 11
-71.681423108322349
 21
8.3851828049379264
 31
0.0
 11
-71.898987761849241
 21
8.4598342021304234
 31
0.0
 11
-72.108406420936433
 21
8.5656749483731005
 31
0.0
 11
-72.297019703288129
 21
8.6953283867724736
 31
0.0
 11
-72.488781563689827
 21
8.8712868451649456
 31
0.0
  0
SPLINE
  5
D5
100
AcDbEntity
  8
CLASS1
390
0
  6
CONTINUOUS
 62
     3
100
AcDbSpline
210
0.0
220
0.0
230
1.0
 70
     0
 71
     3
 72
     0
 73
     0
 74
    12
 44
0.000001
 12
-0.8357939767245289
 22
-0.5490431936296065
 32
0.0
 13
-0.8349856858725149
 23
0.5502716641696226
 33
0.0
 11
-69.988781563689827
 21
11.572492321397817
 31
0.0
 11
-70.182326698631641
 21
11.461074466759953
 31
0.0
 11
-70.40689783069422
 21
11.366576699466805
 31
0.0
 11
-70.66273655611451
 21
11.293315300264283
 31
0.0
 11
-70.940684206669857
 21
11.246469657017087
 31
0.0
 11
-71.195745208287576
 21
11.230392208031844
 31
0.0
 11
-71.452226752705769
 21
11.238369722432878
 31
0.0
 11
-71.681429265317774
 21
11.266857688493701
 31
0.0
 11
-71.898993477404133
 21
11.313794881280273
 31
0.0
 11
-72.108411879236201
 21
11.380342288199756
 31
0.0
 11
-72.297024785252802
 21
11.461861775581269
 31
0.0
 11
-72.488781563689827
 21
11.572492321397817
 31
0.0
  0
SPLINE
  5
D6
100
AcDbEntity
  8
CLASS1
390
0
  6
CONTINUOUS
 62
     3
100
AcDbSpline
210
0.0
220
0.0
230
1.0
 70
     0
 71
     3
 72
     0
 73
     0
 74
    12
 44
0.000001
 12
0.7054189744773609
 22
0.7087905688193857
 32
0.0
 13
0.7045814466447269
 23
-0.7096231288818198
 33
0.0
 11
-72.488781563689827
 21
10.679435011239775
 31
0.0
 11
-72.295245099538022
 21
10.847548041163122
 31
0.0
 11
-72.07068508939301
 21
10.990132573865253
 31
0.0
 11
-71.814845502961532
 21
11.100681458137501
 31
0.0
 11
-71.536895933014364
 21
11.171370907098549
 31
0.0
 11
-71.2818338642345
 21
11.195632812881456
 31
0.0
 11
-71.025350711412671
 21
11.183597571777852
 31
0.0
 11
-70.79614752278485
 21
11.140613575268048
 31
0.0
 11
-70.578582331258019
 21
11.069791164109347
 31
0.0
 11
-70.369163358646801
 21
10.969378892779389
 31
0.0
 11
-70.180549617644715
 21
10.846374969503302
 31
0.0
 11
-69.988781563689827
 21
10.679435011239775
 31
0.0
  0
SPLINE
  5
D7
100
AcDbEntity
  8
CLASS1
390
0
  6
CONTINUOUS
 62
     3
100
AcDbSpline
210
0.0
220
0.0
230
1.0
 70
     0
 71
     3
 72
     0
 73
     0
 74
    12
 44
0.000001
 12
0.8062585902852253
 22
0.5915632557818997
 32
0.0
 13
0.8054006226828253
 23
-0.5927308301262195
 33
0.0
 11
-72.488781563689827
 21
8.8712868451649456
 31
0.0
 11
-72.295240336724589
 21
8.9953661186332852
 31
0.0
 11
-72.070674217384237
 21
9.100602990176867
 31
0.0
 11
-71.814835103906375
 21
9.182192502796056
 31
0.0
 11
-71.536886588279458
 21
9.2343637413093234
 31
0.0
 11
-71.281825105687062
 21
9.2522693532685025
 31
0.0
 11
-71.0253428363539
 21
9.2433858292079094
 31
0.0
 11
-70.796140019057134
 21
9.2116605584860736
 31
0.0
 11
-70.578575365530241
 21
9.159389087433965
 31
0.0
 11
-70.36915670644305
 21
9.0852785990650773
 31
0.0
 11
-70.180543424091354
 21
8.994494284143002
 31
0.0
 11
-69.988781563689827
 21
8.8712868451649456
 31
0.0
  0
SPLINE
  5
D8
100
AcDbEntity
  8
CLASS1
390
0
  6
CONTINUOUS
 62
     3
100
AcDbSpline
210
0.0
220
0.0
230
1.0
 70
     0
 71
     3
 72
     0
 73
     0
 74
    12
 44
0.000001
 12
-0.7274337635759164
 22
-0.6861779066756506
 32
0.0
 13
-0.7265684250138628
 23
0.6870941156587465
 33
0.0
 11
-69.988781563689827
 21
9.7731532714337277
 31
0.0
 11
-70.182317332090065
 21
9.6149465586364613
 31
0.0
 11
-70.406876449805623
 21
9.4807639311196681
 31
0.0
 11
-70.662716105327263
 21
9.3767286826694658
 31
0.0
 11
-70.940665829291447
 21
9.3102042405186012
 31
0.0
 11
-71.195727983701886
 21
9.2873717464851779
 31
0.0
 11
-71.452211265584197
 21
9.2986976683352509
 31
0.0
 11
-71.681414508455873
 21
9.3391487579545469
 31
0.0
 11
-71.898979778573562
 21
9.4057979366968993
 31
0.0
 11
-72.108398796984034
 21
9.5002934198900562
 31
0.0
 11
-72.297012604985355
 21
9.6160493830507221
 31
0.0
 11
-72.488781563689827
 21
9.7731532714337845
 31
0.0
  0
SPLINE
  5
D9
100
AcDbEntity
  8
CLASS1
390
0
  6
CONTINUOUS
 62
     3
100
AcDbSpline
210
0.0
220
0.0
230
1.0
 70
     0
 71
     3
 72
     0
 73
     0
 74
    12
 44
0.000001
 12
-0.7780768279434549
 22
-0.6281691251704841
 32
0.0
 13
-0.7771961392454037
 23
0.6292584215900803
 33
0.0
 11
-69.988781563689827
 21
10.679435011239775
 31
0.0
 11
-70.182318027841916
 21
10.543299763835648
 31
0.0
 11
-70.406878037987212
 21
10.427837085872738
 31
0.0
 11
-70.66271762441869
 21
10.338316364501679
 31
0.0
 11
-70.940667194365801
 21
10.281073177417738
 31
0.0
 11
-71.195729263145608
 21
10.261426273499922
 31
0.0
 11
-71.452212415967438
 21
10.271172219581331
 31
0.0
 11
-71.681415604595202
 21
10.305979973637875
 31
0.0
 11
-71.898980796122032
 21
10.363330831386634
 31
0.0
 11
-72.10839976873325
 21
10.444643085446501
 31
0.0
 11
-72.297013509735336
 21
10.54424969853585
 31
0.0
 11
-72.488781563689827
 21
10.679435011239775
 31
0.0
  0
SPLINE
  5
DA
100
AcDbEntity
  8
CLASS1
390
0
  6
CONTINUOUS
 62
     3
100
AcDbSpline
210
0.0
220
0.0
230
1.0
 70
     0
 71
     3
 72
     0
 73
     0
 74
    12
 44
0.000001
 12
0.7517060680637625
 22
0.6594982844830744
 32
0.0
 13
0.7508246188605885
 23
-0.660501621279503
 33
0.0
 11
-72.488781563689827
 21
9.7731532714337845
 31
0.0
 11
-72.295245795289645
 21
9.9206834178454528
 31
0.0
 11
-72.070686677574088
 21
10.045810742302422
 31
0.0
 11
-71.814847022052447
 21
10.142825180972352
 31
0.0
 11
-71.536897298088206
 21
10.204860226874985
 31
0.0
 11
-71.281835143677824
 21
10.22615187201518
 31
0.0
 11
-71.025351861795514
 21
10.215590279025605
 31
0.0
 11
-70.796148618923837
 21
10.177869027704901
 31
0.0
 11
-70.578583348806092
 21
10.115717663048997
 31
0.0
 11
-70.369164330395677
 21
10.027599199399504
 31
0.0
 11
-70.180550522394356
 21
9.9196550174417553
 31
0.0
 11
-69.988781563689827
 21
9.7731532714337277
 31
0.0
  0
ARC
  5
DB
100
AcDbEntity
  8
CLASS1
390
0
  6
CONTINUOUS
 62
     3
100
AcDbCircle
 10
-71.238782
 20
15.136182
 30
0.0
 40
1.85
100
AcDbArc
 50
83.621095
 51
91.472784
  0
ARC
  5
DC
100
AcDbEntity
  8
CLASS1
390
0
  6
CONTINUOUS
 62
     3
100
AcDbCircle
 10
-71.238782
 20
15.136182
 30
0.0
 40
1.85
100
AcDbArc
 50
47.493358
 51
53.372875
  0
ARC
  5
DD
100
AcDbEntity
  8
CLASS1
390
0
  6
CONTINUOUS
 62
     3
100
AcDbCircle
 10
-71.238782
 20
15.136182
 30
0.0
 40
1.85
100
AcDbArc
 50
126.441532
 51
132.506642
  0
ARC
  5
DE
100
AcDbEntity
  8
CLASS1
390
0
  6
CONTINUOUS
 62
     3
100
AcDbCircle
 10
-71.238782
 20
15.136182
 30
0.0
 40
1.85
100
AcDbArc
 50
91.472784
 51
94.065554
  0
LINE
  5
DF
100
AcDbEntity
  8
CLASS1
390
0
  6
CONTINUOUS
 62
     3
100
AcDbLine
 10
-72.488782
 20
16.5
 30
0.0
 11
-72.488782
 21
16.484166
 31
0.0
  0
LINE
  5
E0
100
AcDbEntity
  8
CLASS1
390
0
  6
CONTINUOUS
 62
     3
100
AcDbLine
 10
-69.988782
 20
16.5
 30
0.0
 11
-69.988782
 21
16.484166
 31
0.0
  0
LINE
  5
E1
100
AcDbEntity
  8
CLASS1
390
0
  6
CONTINUOUS
 62
     3
100
AcDbLine
 10
-69.988782
 20
3.563258
 30
0.0
 11
-69.988782
 21
3.5
 31
0.0
  0
LINE
  5
E2
100
AcDbEntity
  8
CLASS1
390
0
  6
CONTINUOUS
 62
     3
100
AcDbLine
 10
-72.488782
 20
3.563258
 30
0.0
 11
-72.488782
 21
3.5
 31
0.0
  0
LINE
  5
E3
100
AcDbEntity
  8
CLASS1
390
0
  6
CONTINUOUS
 62
     3
100
AcDbLine
 10
-69.988782
 20
16.484166
 30
0.0
 11
-69.988782
 21
16.357959
 31
0.0
  0
LINE
  5
E4
100
AcDbEntity
  8
CLASS1
390
0
  6
CONTINUOUS
 62
     3
100
AcDbLine
 10
-72.488782
 20
16.484166
 30
0.0
 11
-72.488782
 21
16.357959
 31
0.0
  0
LINE
  5
E5
100
AcDbEntity
  8
CLASS1
390
0
  6
CONTINUOUS
 62
     3
100
AcDbLine
 10
-69.988782
 20
3.751799
 30
0.0
 11
-69.988782
 21
3.563258
 31
0.0
  0
LINE
  5
E6
100
AcDbEntity
  8
CLASS1
390
0
  6
CONTINUOUS
 62
     3
100
AcDbLine
 10
-72.488782
 20
3.751799
 30
0.0
 11
-72.488782
 21
3.563258
 31
0.0
  0
LINE
  5
E7
100
AcDbEntity
  8
CLASS1
390
0
  6
CONTINUOUS
 62
     3
100
AcDbLine
 10
-69.988782
 20
16.357959
 30
0.0
 11
-69.988782
 21
16.108002
 31
0.0
  0
LINE
  5
E8
100
AcDbEntity
  8
CLASS1
390
0
  6
CONTINUOUS
 62
     3
100
AcDbLine
 10
-72.488782
 20
16.357959
 30
0.0
 11
-72.488782
 21
16.108002
 31
0.0
  0
LINE
  5
E9
100
AcDbEntity
  8
CLASS1
390
0
  6
CONTINUOUS
 62
     3
100
AcDbLine
 10
-69.988782
 20
4.061955
 30
0.0
 11
-69.988782
 21
3.751799
 31
0.0
  0
LINE
  5
EA
100
AcDbEntity
  8
CLASS1
390
0
  6
CONTINUOUS
 62
     3
100
AcDbLine
 10
-72.488782
 20
4.061955
 30
0.0
 11
-72.488782
 21
3.751799
 31
0.0
  0
LINE
  5
EB
100
AcDbEntity
  8
CLASS1
390
0
  6
CONTINUOUS
 62
     3
100
AcDbLine
 10
-69.988782
 20
16.108002
 30
0.0
 11
-69.988782
 21
15.739159
 31
0.0
  0
LINE
  5
EC
100
AcDbEntity
  8
CLASS1
390
0
  6
CONTINUOUS
 62
     3
100
AcDbLine
 10
-72.488782
 20
16.108002
 30
0.0
 11
-72.488782
 21
15.739159
 31
0.0
  0
LINE
  5
ED
100
AcDbEntity
  8
CLASS1
390
0
  6
CONTINUOUS
 62
     3
100
AcDbLine
 10
-69.988782
 20
4.487687
 30
0.0
 11
-69.988782
 21
4.061955
 31
0.0
  0
LINE
  5
EE
100
AcDbEntity
  8
CLASS1
390
0
  6
CONTINUOUS
 62
     3
100
AcDbLine
 10
-72.488782
 20
4.487687
 30
0.0
 11
-72.488782
 21
4.061955
 31
0.0
  0
LINE
  5
EF
100
AcDbEntity
  8
CLASS1
390
0
  6
CONTINUOUS
 62
     3
100
AcDbLine
 10
-69.988782
 20
15.739159
 30
0.0
 11
-69.988782
 21
15.25861
 31
0.0
  0
LINE
  5
F0
100
AcDbEntity
  8
CLASS1
390
0
  6
CONTINUOUS
 62
     3
100
AcDbLine
 10
-72.488782
 20
15.739159
 30
0.0
 11
-72.488782
 21
15.25861
 31
0.0
  0
LINE
  5
F1
100
AcDbEntity
  8
CLASS1
390
0
  6
CONTINUOUS
 62
     3
100
AcDbLine
 10
-69.988782
 20
5.020711
 30
0.0
 11
-69.988782
 21
4.487687
 31
0.0
  0
LINE
  5
F2
100
AcDbEntity
  8
CLASS1
390
0
  6
CONTINUOUS
 62
     3
100
AcDbLine
 10
-72.488782
 20
5.020711
 30
0.0
 11
-72.488782
 21
4.487687
 31
0.0
  0
LINE
  5
F3
100
AcDbEntity
  8
CLASS1
390
0
  6
CONTINUOUS
 62
     3
100
AcDbLine
 10
-69.988782
 20
15.25861
 30
0.0
 11
-69.988782
 21
14.675709
 31
0.0
  0
LINE
  5
F4
100
AcDbEntity
  8
CLASS1
390
0
  6
CONTINUOUS
 62
     3
100
AcDbLine
 10
-72.488782
 20
15.25861
 30
0.0
 11
-72.488782
 21
14.675709
 31
0.0
  0
LINE
  5
F5
100
AcDbEntity
  8
CLASS1
390
0
  6
CONTINUOUS
 62
     3
100
AcDbLine
 10
-69.988782
 20
5.650651
 30
0.0
 11
-69.988782
 21
5.020711
 31
0.0
  0
LINE
  5
F6
100
AcDbEntity
  8
CLASS1
390
0
  6
CONTINUOUS
 62
     3
100
AcDbLine
 10
-72.488782
 20
5.650651
 30
0.0
 11
-72.488782
 21
5.020711
 31
0.0
  0
LINE
  5
F7
100
AcDbEntity
  8
CLASS1
390
0
  6
CONTINUOUS
 62
     3
100
AcDbLine
 10
-69.988782
 20
14.675709
 30
0.0
 11
-69.988782
 21
14.0018
 31
0.0
  0
LINE
  5
F8
100
AcDbEntity
  8
CLASS1
390
0
  6
CONTINUOUS
 62
     3
100
AcDbLine
 10
-72.488782
 20
14.675709
 30
0.0
 11
-72.488782
 21
14.0018
 31
0.0
  0
LINE
  5
F9
100
AcDbEntity
  8
CLASS1
390
0
  6
CONTINUOUS
 62
     3
100
AcDbLine
 10
-69.988782
 20
5.650651
 30
0.0
 11
-72.488782
 21
5.650651
 31
0.0
  0
LINE
  5
FA
100
AcDbEntity
  8
CLASS1
390
0
  6
CONTINUOUS
 62
     3
100
AcDbLine
 10
-69.988782
 20
6.365246
 30
0.0
 11
-69.988782
 21
5.650651
 31
0.0
  0
LINE
  5
FB
100
AcDbEntity
  8
CLASS1
390
0
  6
CONTINUOUS
 62
     3
100
AcDbLine
 10
-72.488782
 20
6.365246
 30
0.0
 11
-72.488782
 21
5.650651
 31
0.0
  0
LINE
  5
FC
100
AcDbEntity
  8
CLASS1
390
0
  6
CONTINUOUS
 62
     3
100
AcDbLine
 10
-69.988782
 20
14.0018
 30
0.0
 11
-72.488782
 21
14.0018
 31
0.0
  0
LINE
  5
FD
100
AcDbEntity
  8
CLASS1
390
0
  6
CONTINUOUS
 62
     3
100
AcDbLine
 10
-69.988782
 20
14.0018
 30
0.0
 11
-69.988782
 21
13.25
 31
0.0
  0
LINE
  5
FE
100
AcDbEntity
  8
CLASS1
390
0
  6
CONTINUOUS
 62
     3
100
AcDbLine
 10
-72.488782
 20
14.0018
 30
0.0
 11
-72.488782
 21
13.25
 31
0.0
  0
LINE
  5
FF
100
AcDbEntity
  8
CLASS1
390
0
  6
CONTINUOUS
 62
     3
100
AcDbLine
 10
-69.988782
 20
6.365246
 30
0.0
 11
-72.488782
 21
6.365246
 31
0.0
  0
LINE
  5
100
100
AcDbEntity
  8
CLASS1
390
0
  6
CONTINUOUS
 62
     3
100
AcDbLine
 10
-69.988782
 20
7.150588
 30
0.0
 11
-69.988782
 21
6.365246
 31
0.0
  0
LINE
  5
101
100
AcDbEntity
  8
CLASS1
390
0
  6
CONTINUOUS
 62
     3
100
AcDbLine
 10
-72.488782
 20
7.150588
 30
0.0
 11
-72.488782
 21
6.365246
 31
0.0
  0
LINE
  5
102
100
AcDbEntity
  8
CLASS1
390
0
  6
CONTINUOUS
 62
     3
100
AcDbLine
 10
-69.988782
 20
13.25
 30
0.0
 11
-72.488782
 21
13.25
 31
0.0
  0
LINE
  5
103
100
AcDbEntity
  8
CLASS1
390
0
  6
CONTINUOUS
 62
     3
100
AcDbLine
 10
-69.988782
 20
13.25
 30
0.0
 11
-69.988782
 21
12.434943
 31
0.0
  0
LINE
  5
104
100
AcDbEntity
  8
CLASS1
390
0
  6
CONTINUOUS
 62
     3
100
AcDbLine
 10
-72.488782
 20
13.25
 30
0.0
 11
-72.488782
 21
12.434943
 31
0.0
  0
LINE
  5
105
100
AcDbEntity
  8
CLASS1
390
0
  6
CONTINUOUS
 62
     3
100
AcDbLine
 10
-69.988782
 20
7.150588
 30
0.0
 11
-72.488782
 21
7.150588
 31
0.0
  0
LINE
  5
106
100
AcDbEntity
  8
CLASS1
390
0
  6
CONTINUOUS
 62
     3
100
AcDbLine
 10
-72.488782
 20
7.99139
 30
0.0
 11
-72.488782
 21
7.150588
 31
0.0
  0
LINE
  5
107
100
AcDbEntity
  8
CLASS1
390
0
  6
CONTINUOUS
 62
     3
100
AcDbLine
 10
-69.988782
 20
7.99139
 30
0.0
 11
-69.988782
 21
7.150588
 31
0.0
  0
LINE
  5
108
100
AcDbEntity
  8
CLASS1
390
0
  6
CONTINUOUS
 62
     3
100
AcDbLine
 10
-69.988782
 20
12.434943
 30
0.0
 11
-72.488782
 21
12.434943
 31
0.0
  0
LINE
  5
109
100
AcDbEntity
  8
CLASS1
390
0
  6
CONTINUOUS
 62
     3
100
AcDbLine
 10
-72.488782
 20
12.434943
 30
0.0
 11
-72.488782
 21
11.572492
 31
0.0
  0
LINE
  5
10A
100
AcDbEntity
  8
CLASS1
390
0
  6
CONTINUOUS
 62
     3
100
AcDbLine
 10
-69.988782
 20
12.434943
 30
0.0
 11
-69.988782
 21
11.572492
 31
0.0
  0
LINE
  5
10B
100
AcDbEntity
  8
CLASS1
390
0
  6
CONTINUOUS
 62
     3
100
AcDbLine
 10
-69.988782
 20
7.99139
 30
0.0
 11
-72.488782
 21
7.99139
 31
0.0
  0
LINE
  5
10C
100
AcDbEntity
  8
CLASS1
390
0
  6
CONTINUOUS
 62
     3
100
AcDbLine
 10
-72.488782
 20
8.871287
 30
0.0
 11
-72.488782
 21
7.99139
 31
0.0
  0
LINE
  5
10D
100
AcDbEntity
  8
CLASS1
390
0
  6
CONTINUOUS
 62
     3
100
AcDbLine
 10
-69.988782
 20
8.871287
 30
0.0
 11
-69.988782
 21
7.99139
 31
0.0
  0
LINE
  5
10E
100
AcDbEntity
  8
CLASS1
390
0
  6
CONTINUOUS
 62
     3
100
AcDbLine
 10
-69.988782
 20
11.572492
 30
0.0
 11
-72.488782
 21
11.572492
 31
0.0
  0
LINE
  5
10F
100
AcDbEntity
  8
CLASS1
390
0
  6
CONTINUOUS
 62
     3
100
AcDbLine
 10
-72.488782
 20
11.572492
 30
0.0
 11
-72.488782
 21
10.679435
 31
0.0
  0
LINE
  5
110
100
AcDbEntity
  8
CLASS1
390
0
  6
CONTINUOUS
 62
     3
100
AcDbLine
 10
-69.988782
 20
11.572492
 30
0.0
 11
-69.988782
 21
10.679435
 31
0.0
  0
LINE
  5
111
100
AcDbEntity
  8
CLASS1
390
0
  6
CONTINUOUS
 62
     3
100
AcDbLine
 10
-69.988782
 20
8.871287
 30
0.0
 11
-72.488782
 21
8.871287
 31
0.0
  0
LINE
  5
112
100
AcDbEntity
  8
CLASS1
390
0
  6
CONTINUOUS
 62
     3
100
AcDbLine
 10
-72.488782
 20
9.773153
 30
0.0
 11
-72.488782
 21
8.871287
 31
0.0
  0
LINE
  5
113
100
AcDbEntity
  8
CLASS1
390
0
  6
CONTINUOUS
 62
     3
100
AcDbLine
 10
-69.988782
 20
9.773153
 30
0.0
 11
-69.988782
 21
8.871287
 31
0.0
  0
LINE
  5
114
100
AcDbEntity
  8
CLASS1
390
0
  6
CONTINUOUS
 62
     3
100
AcDbLine
 10
-69.988782
 20
10.679435
 30
0.0
 11
-72.488782
 21
10.679435
 31
0.0
  0
LINE
  5
115
100
AcDbEntity
  8
CLASS1
390
0
  6
CONTINUOUS
 62
     3
100
AcDbLine
 10
-72.488782
 20
10.679435
 30
0.0
 11
-72.488782
 21
9.773153
 31
0.0
  0
LINE
  5
116
100
AcDbEntity
  8
CLASS1
390
0
  6
CONTINUOUS
 62
     3
100
AcDbLine
 10
-69.988782
 20
10.679435
 30
0.0
 11
-69.988782
 21
9.773153
 31
0.0
  0
LINE
  5
117
100
AcDbEntity
  8
CLASS1
390
0
  6
CONTINUOUS
 62
     3
100
AcDbLine
 10
-69.988782
 20
9.773153
 30
0.0
 11
-72.488782
 21
9.773153
 31
0.0
  0
SPLINE
  5
118
100
AcDbEntity
  8
CLASS1
390
0
  6
CONTINUOUS
 62
     3
100
AcDbSpline
210
0.0
220
0.0
230
1.0
 70
     0
 71
     3
 72
     0
 73
     0
 74
    22
 44
0.000001
 12
-0.9999725049649734
 22
0.0074154780072696
 32
0.0
 13
-0.0515469553206034
 23
-0.9986705720091965
 33
0.0
 11
-65.260539599402421
 21
40.798837524501323
 31
0.0
 11
-65.543725732674432
 21
40.783857839028428
 31
0.0
 11
-65.802040459044861
 21
40.739617224160156
 31
0.0
 11
-66.034767324574261
 21
40.671849365357502
 31
0.0
 11
-66.335638746185339
 21
40.546956869145333
 31
0.0
 11
-66.581137035315066
 21
40.411654372930798
 31
0.0
 11
-66.776423095988434
 21
40.281497155856641
 31
0.0
 11
-66.93210020920634
 21
40.16291548551493
 31
0.0
 11
-67.079996207346767
 21
40.037672478259367
 31
0.0
 11
-67.224077954273525
 21
39.903382609004893
 31
0.0
 11
-67.58897610447201
 21
39.505991177999135
 31
0.0
 11
-67.915748295879268
 21
39.066595934234385
 31
0.0
 11
-68.203897444059464
 21
38.601937345949239
 31
0.0
 11
-68.462914886309761
 21
38.11580413034801
 31
0.0
 11
-68.692808023815985
 21
37.617598748781006
 31
0.0
 11
-68.897049554077455
 21
37.106908745326848
 31
0.0
 11
-69.047060477407342
 21
36.674658573852298
 31
0.0
 11
-69.16886075147562
 21
36.25691015971563
 31
0.0
 11
-69.209182593373384
 21
36.090678192963367
 31
0.0
 11
-69.252012103966933
 21
35.881826155636247
 31
0.0
 11
-69.291534729255716
 21
35.624132517785597
 31
0.0
 11
-69.319346053251365
 21
35.30614154756455
 31
0.0
  0
SPLINE
  5
119
100
AcDbEntity
  8
CLASS1
390
0
  6
CONTINUOUS
 62
     3
100
AcDbSpline
210
0.0
220
0.0
230
1.0
 70
     0
 71
     3
 72
     0
 73
     0
 74
    26
 44
0.000001
 12
0.1575189330638185
 22
-0.987515967327332
 32
0.0
 13
0.9996396286432323
 23
-0.0268442330123384
 33
0.0
 11
-69.257980960558314
 21
-3.3452777025067348
 31
0.0
 11
-69.208580920352006
 21
-3.6119701599504879
 31
0.0
 11
-69.156215416585496
 21
-3.8362274399188436
 31
0.0
 11
-69.105012011715644
 21
-4.0224935355282696
 31
0.0
 11
-69.047756083892409
 21
-4.2055431976232285
 31
0.0
 11
-68.991163871649803
 21
-4.3678719087488957
 31
0.0
 11
-68.927125069246642
 21
-4.5349028289808757
 31
0.0
 11
-68.858970624628796
 21
-4.6976648954102984
 31
0.0
 11
-68.768467104104786
 21
-4.8950450438014741
 31
0.0
 11
-68.633417178433092
 21
-5.1590284815007408
 31
0.0
 11
-68.488435208670296
 21
-5.4116336474746731
 31
0.0
 11
-68.354165399675196
 21
-5.6231605556072282
 31
0.0
 11
-68.229938699151205
 21
-5.8029224212504573
 31
0.0
 11
-68.09409464756402
 21
-5.9846470754416714
 31
0.0
 11
-67.943138768962513
 21
-6.170822383309428
 31
0.0
 11
-67.602384156139863
 21
-6.5387763397549179
 31
0.0
 11
-67.221257842081968
 21
-6.8779649444005031
 31
0.0
 11
-66.811233564396218
 21
-7.1723897897350639
 31
0.0
 11
-66.654805985508631
 21
-7.2679277374185176
 31
0.0
 11
-66.497215488768461
 21
-7.3554499081139397
 31
0.0
 11
-66.327865307984723
 21
-7.4401569716251856
 31
0.0
 11
-66.115801241318252
 21
-7.5330808828961153
 31
0.0
 11
-65.856218974928424
 21
-7.6277861185209304
 31
0.0
 11
-65.545870219048027
 21
-7.7149322889126779
 31
0.0
 11
-65.184082992527976
 21
-7.7824171245480329
 31
0.0
 11
-64.772652832336348
 21
-7.8158741093793651
 31
0.0
  0
ARC
  5
11A
100
AcDbEntity
  8
CLASS1
390
0
  6
CONTINUOUS
 62
     3
100
AcDbCircle
 10
400.770862
 20
10.0
 30
0.0
 40
470.770862
100
AcDbArc
 50
179.429759
 51
179.604451
  0
ARC
  5
11B
100
AcDbEntity
  8
CLASS1
390
0
  6
CONTINUOUS
 62
     3
100
AcDbCircle
 10
400.770862
 20
10.0
 30
0.0
 40
470.770862
100
AcDbArc
 50
179.358847
 51
179.429759
  0
ARC
  5
11C
100
AcDbEntity
  8
CLASS1
390
0
  6
CONTINUOUS
 62
     3
100
AcDbCircle
 10
400.770862
 20
10.0
 30
0.0
 40
470.770862
100
AcDbArc
 50
179.300608
 51
179.358847
  0
ARC
  5
11D
100
AcDbEntity
  8
CLASS1
390
0
  6
CONTINUOUS
 62
     3
100
AcDbCircle
 10
400.770862
 20
10.0
 30
0.0
 40
470.770862
100
AcDbArc
 50
176.918605
 51
179.300608
  0
ARC
  5
11E
100
AcDbEntity
  8
CLASS1
390
0
  6
CONTINUOUS
 62
     3
100
AcDbCircle
 10
400.770862
 20
10.0
 30
0.0
 40
470.770862
100
AcDbArc
 50
180.607204
 51
181.084198
  0
ARC
  5
11F
100
AcDbEntity
  8
CLASS1
390
0
  6
CONTINUOUS
 62
     3
100
AcDbCircle
 10
400.770862
 20
10.0
 30
0.0
 40
470.770862
100
AcDbArc
 50
180.395549
 51
180.607204
  0
ARC
  5
120
100
AcDbEntity
  8
CLASS1
390
0
  6
CONTINUOUS
 62
     3
100
AcDbCircle
 10
18711.481256
 20
2985.282593
 30
0.0
 40
19017.046607
100
AcDbArc
 50
189.030364
 51
189.041812
  0
ARC
  5
121
100
AcDbEntity
  8
CLASS1
390
0
  6
CONTINUOUS
 62
     3
100
AcDbCircle
 10
-64.916714
 20
1.192204
 30
0.0
 40
5.0
100
AcDbArc
 50
181.146023
 51
181.291147
  0
ARC
  5
122
100
AcDbEntity
  8
CLASS1
390
0
  6
CONTINUOUS
 62
     3
100
AcDbCircle
 10
-64.916714
 20
1.192204
 30
0.0
 40
5.0
100
AcDbArc
 50
181.291147
 51
189.029004
  0
LINE
  5
123
100
AcDbEntity
  8
CLASS1
390
0
  6
CONTINUOUS
 62
     3
100
AcDbLine
 10
-59.5
 20
-7.694073
 30
0.0
 11
-59.5
 21
-8.0
 31
0.0
  0
LINE
  5
124
100
AcDbEntity
  8
CLASS1
390
0
  6
CONTINUOUS
 62
     3
100
AcDbLine
 10
-59.5
 20
41.0
 30
0.0
 11
-65.27054
 21
40.798488
 31
0.0
  0
LINE
  5
125
100
AcDbEntity
  8
CLASS1
390
0
  6
CONTINUOUS
 62
     3
100
AcDbLine
 10
-59.5
 20
41.0
 30
0.0
 11
-59.5
 21
36.855641
 31
0.0
  0
LINE
  5
126
100
AcDbEntity
  8
CLASS1
390
0
  6
CONTINUOUS
 62
     3
100
AcDbLine
 10
-59.5
 20
-7.694073
 30
0.0
 11
-59.5
 21
-4.0
 31
0.0
  0
LINE
  5
127
100
AcDbEntity
  8
CLASS1
390
0
  6
CONTINUOUS
 62
     3
100
AcDbLine
 10
-69.854759
 20
0.407531
 30
0.0
 11
-69.85474
 21
0.40741
 31
0.0
  0
LINE
  5
128
100
AcDbEntity
  8
CLASS1
390
0
  6
CONTINUOUS
 62
     3
100
AcDbLine
 10
-59.5
 20
0.838432
 30
0.0
 11
-59.5
 21
-8.0
 31
0.0
  0
LINE
  5
129
100
AcDbEntity
  8
CLASS1
390
0
  6
CONTINUOUS
 62
     3
100
AcDbLine
 10
-64.772598
 20
-7.815877
 30
0.0
 11
-59.5
 21
-8.0
 31
0.0
  0
LINE
  5
12A
100
AcDbEntity
  8
CLASS1
390
0
  6
CONTINUOUS
 62
     3
100
AcDbLine
 10
-59.5
 20
0.838432
 30
0.0
 11
-59.5
 21
36.855641
 31
0.0
  0
SPLINE
  5
12B
100
AcDbEntity
  8
CLASS1
390
0
  6
CONTINUOUS
 62
     3
100
AcDbSpline
210
0.0
220
0.0
230
1.0
 70
     1
 71
     3
 72
     0
 73
     0
 74
    59
 44
0.000001
 12
-0.0002928864207639
 22
0.9999999571087713
 32
0.0
 13
-0.0002928864207639
 23
0.9999999571087713
 33
0.0
 11
-51.84165627596056
 21
9.9999900265929682
 31
0.0
 11
-51.819486476091612
 21
10.618629395702555
 31
0.0
 11
-51.751359838697084
 21
11.235813728395328
 31
0.0
 11
-51.634850507095507
 21
11.845217109396344
 31
0.0
 11
-51.467532624605354
 21
12.440513623430888
 31
0.0
 11
-51.285481068593299
 21
12.924236588315239
 31
0.0
 11
-51.060599766327329
 21
13.390541276735917
 31
0.0
 11
-50.790108384216353
 21
13.830082531394623
 31
0.0
 11
-50.558318430360089
 21
14.132875569262353
 31
0.0
 11
-50.297493663079166
 21
14.412114879462422
 31
0.0
 11
-50.008514448633548
 21
14.660031310398836
 31
0.0
 11
-49.765611874106611
 21
14.825779584766508
 31
0.0
 11
-49.506162255264542
 21
14.965738309688504
 31
0.0
 11
-49.233607988991935
 21
15.07531092177453
 31
0.0
 11
-48.947432952376573
 21
15.15111743946693
 31
0.0
 11
-48.652840582136207
 21
15.190504438759376
 31
0.0
 11
-48.356935644958241
 21
15.191607620013997
 31
0.0
 11
-47.972623841120509
 21
15.133800909756417
 31
0.0
 11
-47.602682662230507
 21
15.014092564349539
 31
0.0
 11
-47.249647661259758
 21
14.835114937032813
 31
0.0
 11
-46.925012111491014
 21
14.608163556156796
 31
0.0
 11
-46.6241930275404
 21
14.334324613834156
 31
0.0
 11
-46.355458312750386
 21
14.026868699079387
 31
0.0
 11
-46.119388705831312
 21
13.694731780927782
 31
0.0
 11
-45.823330088879572
 21
13.164271819275655
 31
0.0
 11
-45.587957317777921
 21
12.60172658982458
 31
0.0
 11
-45.408698097257968
 21
12.020088055895656
 31
0.0
 11
-45.268867261991289
 21
11.363016600748665
 31
0.0
 11
-45.185863218537634
 21
10.693971685978852
 31
0.0
 11
-45.157930917732017
 21
10.020019091317181
 31
0.0
 11
-45.183315310409455
 21
9.3482245964945605
 31
0.0
 11
-45.243313877006386
 21
8.8022918302100948
 31
0.0
 11
-45.341127806076884
 21
8.2589991933969031
 31
0.0
 11
-45.47941107426962
 21
7.7245033182208545
 31
0.0
 11
-45.660817658233185
 21
7.204960836847988
 31
0.0
 11
-45.888001534616222
 21
6.7065283814441727
 31
0.0
 11
-46.087035500964532
 21
6.3563682696870956
 31
0.0
 11
-46.315889675801998
 21
6.0241578619923075
 31
0.0
 11
-46.575256091790436
 21
5.7166323073763579
 31
0.0
 11
-46.818620763877647
 21
5.4812953235700661
 31
0.0
 11
-47.085467468944074
 21
5.2716906603770894
 31
0.0
 11
-47.373344322801358
 21
5.0944486940798015
 31
0.0
 11
-47.746886998111449
 21
4.9316039446435411
 31
0.0
 11
-48.141806848114726
 21
4.8323422150379542
 31
0.0
 11
-48.549764511432784
 21
4.8048281100099643
 31
0.0
 11
-48.956153368192702
 21
4.8501590873123632
 31
0.0
 11
-49.323440611136903
 21
4.9568727093867437
 31
0.0
 11
-49.670427016818849
 21
5.1183362029511272
 31
0.0
 11
-49.960507653760544
 21
5.3044994975842883
 31
0.0
 11
-50.228471929731256
 21
5.5233457235002561
 31
0.0
 11
-50.472004386928688
 21
5.7679693700138159
 31
0.0
 11
-50.776914142108808
 21
6.1510632474085014
 31
0.0
 11
-51.037566537840604
 21
6.5677522622126503
 31
0.0
 11
-51.255673598472669
 21
7.0071267070685508
 31
0.0
 11
-51.458594624623203
 21
7.5317334387834762
 31
0.0
 11
-51.615532899883277
 21
8.0738988312663764
 31
0.0
 11
-51.729271831560197
 21
8.627375465283194
 31
0.0
 11
-51.80259482696124
 21
9.1859159216000421
 31
0.0
 11
-51.84165627596056
 21
9.9999900265929682
 31
0.0
  0
SPLINE
  5
12C
100
AcDbEntity
  8
CLASS1
390
0
  6
CONTINUOUS
 62
     3
100
AcDbSpline
210
0.0
220
0.0
230
1.0
 70
     1
 71
     3
 72
     0
 73
     0
 74
    58
 44
0.000001
 12
-0.9999998776226073
 22
0.000494726965446
 32
0.0
 13
-0.9999998776226073
 23
0.000494726965446
 33
0.0
 11
-48.5
 21
18.660244064437336
 31
0.0
 11
-48.898882096185503
 21
18.67812039662374
 31
0.0
 11
-49.286004264641889
 21
18.729742430833653
 31
0.0
 11
-49.649215781522315
 21
18.811742470992385
 31
0.0
 11
-49.98488548101281
 21
18.919427259432894
 31
0.0
 11
-50.283504860609895
 21
19.045576602271865
 31
0.0
 11
-50.552490524682185
 21
19.188441327845453
 31
0.0
 11
-50.790823471294658
 21
19.343788269144284
 31
0.0
 11
-51.090700591990043
 21
19.59108821856131
 31
0.0
 11
-51.333888129890823
 21
19.854705322352743
 31
0.0
 11
-51.524315756822318
 21
20.128368426485338
 31
0.0
 11
-51.682162174735623
 21
20.444057963091439
 31
0.0
 11
-51.785166389022578
 21
20.766522831132875
 31
0.0
 11
-51.835585926346283
 21
21.092331697071359
 31
0.0
 11
-51.835678313369897
 21
21.41805322736883
 31
0.0
 11
-51.784358872711465
 21
21.752270568439712
 31
0.0
 11
-51.677690445924128
 21
22.084559789260027
 31
0.0
 11
-51.51161357937292
 21
22.410179612305512
 31
0.0
 11
-51.282068819423017
 21
22.724388760051852
 31
0.0
 11
-51.091981031206132
 21
22.924225657541228
 31
0.0
 11
-50.867973287249612
 21
23.115470165407373
 31
0.0
 11
-50.608566678361399
 21
23.294426130189663
 31
0.0
 11
-50.368458598489667
 21
23.429211076496472
 31
0.0
 11
-50.101754432874174
 21
23.551445102550531
 31
0.0
 11
-49.810207904889324
 21
23.657426335273897
 31
0.0
 11
-49.438372863817506
 21
23.756492218335893
 31
0.0
 11
-49.039593346583274
 21
23.823918776246728
 31
0.0
 11
-48.76178238481782
 21
23.848595639503969
 31
0.0
 11
-48.478954053810412
 21
23.856148444796531
 31
0.0
 11
-48.197537096379847
 21
23.846243586691401
 31
0.0
 11
-47.822778141056745
 21
23.804880592256893
 31
0.0
 11
-47.465473621548568
 21
23.734544853736168
 31
0.0
 11
-47.115056869985523
 21
23.632719688048951
 31
0.0
 11
-46.795733159683607
 21
23.507674877128863
 31
0.0
 11
-46.492340667842399
 21
23.354241737735094
 31
0.0
 11
-46.224770873763191
 21
23.183909613589719
 31
0.0
 11
-45.992919034383135
 21
23.001483274319014
 31
0.0
 11
-45.770354712801122
 21
22.783972921788745
 31
0.0
 11
-45.586089691806677
 21
22.55678112925375
 31
0.0
 11
-45.437831476176171
 21
22.322779516944422
 31
0.0
 11
-45.32328757068575
 21
22.084839705091269
 31
0.0
 11
-45.213139413548618
 21
21.741965557805827
 31
0.0
 11
-45.161774353995412
 21
21.394392421763484
 31
0.0
 11
-45.168431192737756
 21
21.045809950036755
 31
0.0
 11
-45.232348730487217
 21
20.699907795698152
 31
0.0
 11
-45.319174890426837
 21
20.441442166571505
 31
0.0
 11
-45.442048171275047
 21
20.185895807174575
 31
0.0
 11
-45.603431163638959
 21
19.936051510114339
 31
0.0
 11
-45.805786458125851
 21
19.694692067998062
 31
0.0
 11
-46.01250668922259
 21
19.498243440110173
 31
0.0
 11
-46.254641715138405
 21
19.311724421433553
 31
0.0
 11
-46.533352970690572
 21
19.139351048740536
 31
0.0
 11
-46.772238316408334
 21
19.019664516113949
 31
0.0
 11
-47.034569728676871
 21
18.912361140670896
 31
0.0
 11
-47.318184850574596
 21
18.820686926296162
 31
0.0
 11
-47.691820764291322
 21
18.733951129934894
 31
0.0
 11
-48.088542856622666
 21
18.67906978009114
 31
0.0
 11
-48.5
 21
18.660244064437336
 31
0.0
  0
SPLINE
  5
12D
100
AcDbEntity
  8
CLASS1
390
0
  6
CONTINUOUS
 62
     3
100
AcDbSpline
210
0.0
220
0.0
230
1.0
 70
     1
 71
     3
 72
     0
 73
     0
 74
    58
 44
0.000001
 12
0.9999998776226073
 22
-0.0004947269654407
 32
0.0
 13
0.9999998776226073
 23
-0.0004947269654406
 33
0.0
 11
-48.5
 21
1.3397359887485436
 31
0.0
 11
-48.101117903814497
 21
1.3218596565621965
 31
0.0
 11
-47.713995735358139
 21
1.2702376223522833
 31
0.0
 11
-47.350784218477713
 21
1.1882375821935511
 31
0.0
 11
-47.015114518987218
 21
1.0805527937530428
 31
0.0
 11
-46.716495139390133
 21
0.9544034509140147
 31
0.0
 11
-46.447509475317844
 21
0.8115387253404833
 31
0.0
 11
-46.20917652870537
 21
0.6561917840416527
 31
0.0
 11
-45.909299408009986
 21
0.408891834624626
 31
0.0
 11
-45.666111870109205
 21
0.1452747308331936
 31
0.0
 11
-45.47568424317771
 21
-0.1283883732994013
 31
0.0
 11
-45.317837825264405
 21
-0.4440779099055021
 31
0.0
 11
-45.21483361097745
 21
-0.7665427779469383
 31
0.0
 11
-45.164414073653745
 21
-1.0923516438854222
 31
0.0
 11
-45.164321686630132
 21
-1.4180731741828936
 31
0.0
 11
-45.215641127288563
 21
-1.752290515253776
 31
0.0
 11
-45.3223095540759
 21
-2.0845797360740903
 31
0.0
 11
-45.48838642062708
 21
-2.410199559119576
 31
0.0
 11
-45.717931180577011
 21
-2.7244087068659155
 31
0.0
 11
-45.908018968793897
 21
-2.924245604355292
 31
0.0
 11
-46.132026712750417
 21
-3.1154901122214369
 31
0.0
 11
-46.39143332163863
 21
-3.2944460770037267
 31
0.0
 11
-46.631541401510333
 21
-3.4292310233105354
 31
0.0
 11
-46.898245567125826
 21
-3.5514650493645945
 31
0.0
 11
-47.189792095110704
 21
-3.6574462820879603
 31
0.0
 11
-47.561627136182523
 21
-3.7565121651499567
 31
0.0
 11
-47.960406653416726
 21
-3.8239387230607917
 31
0.0
 11
-48.238217615182208
 21
-3.8486155863180329
 31
0.0
 11
-48.521045946189588
 21
-3.8561683916105949
 31
0.0
 11
-48.802462903620153
 21
-3.8462635335054642
 31
0.0
 11
-49.177221858943255
 21
-3.8049005390709567
 31
0.0
 11
-49.534526378451432
 21
-3.7345648005502312
 31
0.0
 11
-49.884943130014477
 21
-3.6327396348630145
 31
0.0
 11
-50.204266840316393
 21
-3.5076948239429271
 31
0.0
 11
-50.50765933215763
 21
-3.354261684549158
 31
0.0
 11
-50.775229126236809
 21
-3.1839295604037829
 31
0.0
 11
-51.007080965616836
 21
-3.0015032211330777
 31
0.0
 11
-51.229645287198906
 21
-2.7839928686028088
 31
0.0
 11
-51.413910308193294
 21
-2.5568010760678135
 31
0.0
 11
-51.562168523823829
 21
-2.3227994637584857
 31
0.0
 11
-51.67671242931425
 21
-2.0848596519053899
 31
0.0
 11
-51.786860586451411
 21
-1.7419855046198904
 31
0.0
 11
-51.838225646004588
 21
-1.3944123685776049
 31
0.0
 11
-51.831568807262244
 21
-1.0458298968508757
 31
0.0
 11
-51.767651269512783
 21
-0.6999277425122727
 31
0.0
 11
-51.680825109573163
 21
-0.441462113385569
 31
0.0
 11
-51.557951828724981
 21
-0.1859157539886382
 31
0.0
 11
-51.396568836361041
 21
0.0639285430715404
 31
0.0
 11
-51.194213541874177
 21
0.3052879851878743
 31
0.0
 11
-50.987493310777438
 21
0.5017366130757068
 31
0.0
 11
-50.745358284861595
 21
0.6882556317523267
 31
0.0
 11
-50.466647029309456
 21
0.8606290044453999
 31
0.0
 11
-50.227761683591694
 21
0.9803155370719878
 31
0.0
 11
-49.965430271323157
 21
1.0876189125150404
 31
0.0
 11
-49.681815149425432
 21
1.1792931268897746
 31
0.0
 11
-49.308179235708678
 21
1.2660289232510422
 31
0.0
 11
-48.911457143377362
 21
1.3209102730947961
 31
0.0
 11
-48.5
 21
1.3397359887485436
 31
0.0
  0
ARC
  5
12E
100
AcDbEntity
  8
CLASS1
390
0
  6
CONTINUOUS
 62
     3
100
AcDbCircle
 10
-41.645412
 20
7.852667
 30
0.0
 40
15.0
100
AcDbArc
 50
196.868639
 51
223.644235
  0
ARC
  5
12F
100
AcDbEntity
  8
CLASS1
390
0
  6
CONTINUOUS
 62
     3
100
AcDbCircle
 10
-41.645412
 20
12.147313
 30
0.0
 40
15.0
100
AcDbArc
 50
136.355765
 51
163.131361
  0
ARC
  5
130
100
AcDbEntity
  8
CLASS1
390
0
  6
CONTINUOUS
 62
     3
100
AcDbCircle
 10
-48.5
 20
2.083323
 30
0.0
 40
6.083333
100
AcDbArc
 50
228.88791
 51
311.11209
  0
ARC
  5
131
100
AcDbEntity
  8
CLASS1
390
0
  6
CONTINUOUS
 62
     3
100
AcDbCircle
 10
-48.5
 20
17.916657
 30
0.0
 40
6.083333
100
AcDbArc
 50
48.88791
 51
131.11209
  0
LINE
  5
132
100
AcDbEntity
  8
CLASS1
390
0
  6
CONTINUOUS
 62
     3
100
AcDbLine
 10
-56.5
 20
3.49999
 30
0.0
 11
-56.0
 21
3.49999
 31
0.0
  0
LINE
  5
133
100
AcDbEntity
  8
CLASS1
390
0
  6
CONTINUOUS
 62
     3
100
AcDbLine
 10
-56.0
 20
16.49999
 30
0.0
 11
-56.5
 21
16.49999
 31
0.0
  0
LINE
  5
134
100
AcDbEntity
  8
CLASS1
390
0
  6
CONTINUOUS
 62
     3
100
AcDbLine
 10
-56.5
 20
16.49999
 30
0.0
 11
-56.5
 21
3.49999
 31
0.0
  0
LINE
  5
135
100
AcDbEntity
  8
CLASS1
390
0
  6
CONTINUOUS
 62
     3
100
AcDbLine
 10
-56.0
 20
16.49999
 30
0.0
 11
-56.0
 21
3.49999
 31
0.0
  0
LINE
  5
136
100
AcDbEntity
  8
CLASS1
390
0
  6
CONTINUOUS
 62
     3
100
AcDbLine
 10
-44.5
 20
22.49999
 30
0.0
 11
-44.5
 21
-2.50001
 31
0.0
  0
DIMENSION
  5
144
100
AcDbEntity
  8
CLASS1
390
0
  6
CONTINUOUS
 62
   143
100
AcDbDimension
  2
*D4
 10
-85.0
 20
35.0
 30
0.0
 11
-85.0
 21
22.5
 31
0.0
 70
   128
 71
     5
 72
     1
 41
0.96
 42
25.0
  1
\A1;<>
  3
MXDIMSTYLE
100
AcDbAlignedDimension
 13
-77.488781
 23
10.0
 33
0.0
 14
-39.315498
 24
35.0
 34
0.0
 50
90.0
100
AcDbRotatedDimension
1001
ACAD
1000
DSTYLE
1002
{
1070
    41
1040
2.77
1070
    78
1070
     0
1070
   271
1070
     1
1070
   340
1005
13E
1002
}
  0
DIMENSION
  5
152
100
AcDbEntity
  8
CLASS1
390
0
  6
CONTINUOUS
 62
   143
100
AcDbDimension
  2
*D5
 10
-72.488782
 20
-30.0
 30
0.0
 11
-51.24439
 21
-30.0
 31
0.0
 70
   128
 71
     5
 72
     1
 41
0.96
 42
0.0
  1
\A1;(最大46.5)
  3
MXDIMSTYLE
100
AcDbAlignedDimension
 13
-30.0
 23
-7.25
 33
0.0
 14
-72.488782
 24
3.5
 34
0.0
100
AcDbRotatedDimension
1001
ACAD
1000
DSTYLE
1002
{
1070
    41
1040
2.77
1070
    78
1070
     0
1070
   271
1070
     1
1070
   340
1005
14C
1002
}
  0
DIMENSION
  5
162
100
AcDbEntity
  8
CLASS1
390
0
  6
CONTINUOUS
 62
   143
100
AcDbDimension
  2
*D6
 10
5.0
 20
-4.722432
 30
0.0
 11
5.0
 21
38.748921
 31
0.0
 70
   128
 71
     5
 72
     1
 41
0.96
 42
0.0
  1
\A1;六角対辺25.5
  3
MXDIMSTYLE
100
AcDbAlignedDimension
 13
-6.0
 23
24.722432
 33
0.0
 14
-6.0
 24
-4.722432
 34
0.0
 50
90.0
100
AcDbRotatedDimension
1001
ACAD
1000
DSTYLE
1002
{
1070
    41
1040
2.77
1070
    78
1070
     0
1070
   271
1070
     1
1002
}
  0
MTEXT
  5
163
100
AcDbEntity
  8
CLASS1
390
0
  6
CONTINUOUS
 62
   143
100
AcDbMText
 10
-8.838134
 20
-123.418588
 30
0.0
 40
4.0
 41
0.0
 71
     1
 72
     1
  1
\W0.833333;\A1;中本
 73
     1
 44
0.96
  0
MTEXT
  5
164
100
AcDbEntity
  8
CLASS1
390
0
  6
CONTINUOUS
 62
   143
100
AcDbMText
 10
-40.917149
 20
-115.332664
 30
0.0
 40
3.75
 41
0.0
 71
     1
 72
     1
  1
\T0.958395;\W1.043411;\A1;１
 73
     1
 44
1.152
  0
MTEXT
  5
165
100
AcDbEntity
  8
CLASS1
390
0
  6
CONTINUOUS
 62
   143
100
AcDbMText
 10
-34.013821
 20
-120.569679
 30
0.0
 40
3.75
 41
0.0
 71
     1
 72
     1
  1
\T0.958395;\W1.043411;\A1;１
 73
     1
 44
1.152
  0
MTEXT
  5
166
100
AcDbEntity
  8
CLASS1
390
0
  6
CONTINUOUS
 62
   143
100
AcDbMText
 10
-26.478908
 20
-134.5
 30
0.0
 40
3.0
 41
0.0
 71
     1
 72
     1
  1
\W1.042184;\A1;2009年11月02日 作成
 73
     1
 44
0.96
  0
MTEXT
  5
167
100
AcDbEntity
  8
CLASS1
390
0
  6
CONTINUOUS
 62
   143
100
AcDbMText
 10
-23.838134
 20
-123.418588
 30
0.0
 40
4.0
 41
0.0
 71
     1
 72
     1
  1
\W0.833333;\A1;上出
 73
     1
 44
0.96
  0
MTEXT
  5
168
100
AcDbEntity
  8
CLASS1
390
0
  6
CONTINUOUS
 62
   143
100
AcDbMText
 10
25.125
 20
-130.0
 30
0.0
 40
4.5
 41
0.0
 71
     1
 72
     1
  1
\W0.833333;\A1;アングル形止水栓本体
 73
     1
 44
0.96
  0
MTEXT
  5
169
100
AcDbEntity
  8
CLASS1
390
0
  6
CONTINUOUS
 62
   143
100
AcDbMText
 10
25.333333
 20
-117.5
 30
0.0
 40
4.5
 41
0.0
 71
     1
 72
     1
  1
\W1.111111;\A1;705-601-13
 73
     1
 44
0.96
  0
MTEXT
  5
16A
100
AcDbEntity
  8
CLASS1
390
0
  6
CONTINUOUS
 62
   143
100
AcDbMText
 10
-86.229949
 20
-106.146591
 30
0.0
 40
4.0
 41
0.0
 71
     1
 72
     1
  1
\W0.858586;\A1;注：（ ）内寸法は参考寸法である。
 73
     1
 44
0.96
  0
INSERT
  5
1BB
100
AcDbEntity
  8
CLASS1
390
0
  6
ByBlock
 62
   143
100
AcDbBlockReference
  2
$KAKUDAI-2
 10
-75.129906
 20
-134.630508
 30
0.0
  0
INSERT
  5
1C9
100
AcDbEntity
  8
CLASS1
390
0
  6
ByBlock
 62
   143
100
AcDbBlockReference
  2
$KAKUDAI-3
 10
-84.340515
 20
-132.25
 30
0.0
  0
LINE
  5
1CA
100
AcDbEntity
  8
CLASS1
390
0
  6
CENTER
 62
   140
100
AcDbLine
 10
-91.108955
 20
-119.75
 30
0.0
 11
-71.675331
 21
-119.75
 31
0.0
  0
LINE
  5
1CB
100
AcDbEntity
  8
CLASS1
390
0
  6
CENTER
 62
   140
100
AcDbLine
 10
-86.340515
 20
-114.676628
 30
0.0
 11
-86.340515
 21
-124.753326
 31
0.0
  0
LINE
  5
1CC
100
AcDbEntity
  8
CLASS1
390
0
  6
CONTINUOUS
 62
   130
100
AcDbLine
 10
-80.715515
 20
-117.875
 30
0.0
 11
-80.715515
 21
-121.624985
 31
0.0
  0
LINE
  5
1CD
100
AcDbEntity
  8
CLASS1
390
0
  6
CONTINUOUS
 62
   130
100
AcDbLine
 10
-73.215515
 20
-116.375
 30
0.0
 11
-73.215515
 21
-123.124985
 31
0.0
  0
LINE
  5
1CE
100
AcDbEntity
  8
CLASS1
390
0
  6
CONTINUOUS
 62
   130
100
AcDbLine
 10
-80.715524
 20
-117.875012
 30
0.0
 11
-73.215524
 21
-116.375012
 31
0.0
  0
LINE
  5
1CF
100
AcDbEntity
  8
CLASS1
390
0
  6
CONTINUOUS
 62
   130
100
AcDbLine
 10
-80.715521
 20
-121.625005
 30
0.0
 11
-73.215521
 21
-123.125005
 31
0.0
  0
LINE
  5
1D0
100
AcDbEntity
  8
CLASS1
390
0
  6
CONTINUOUS
 62
   130
100
AcDbLine
 10
-28.0
 20
-133.5
 30
0.0
 11
17.0
 21
-133.5
 31
0.0
  0
LINE
  5
1D1
100
AcDbEntity
  8
CLASS1
390
0
  6
CONTINUOUS
 62
   130
100
AcDbLine
 10
-28.0
 20
-118.5
 30
0.0
 11
17.0
 21
-118.5
 31
0.0
  0
LINE
  5
1D2
100
AcDbEntity
  8
CLASS1
390
0
  6
CONTINUOUS
 62
   130
100
AcDbLine
 10
-95.0
 20
-113.5
 30
0.0
 11
95.0
 21
-113.5
 31
0.0
  0
LINE
  5
1D3
100
AcDbEntity
  8
CLASS1
390
0
  6
CONTINUOUS
 62
   130
100
AcDbLine
 10
-95.0
 20
-126.0
 30
0.0
 11
-28.0
 21
-126.0
 31
0.0
  0
LINE
  5
1D4
100
AcDbEntity
  8
CLASS1
390
0
  6
CONTINUOUS
 62
   130
100
AcDbLine
 10
-48.0
 20
-113.5
 30
0.0
 11
-48.0
 21
-126.0
 31
0.0
  0
LINE
  5
1D5
100
AcDbEntity
  8
CLASS1
390
0
  6
CONTINUOUS
 62
   130
100
AcDbLine
 10
-68.0
 20
-113.5
 30
0.0
 11
-68.0
 21
-126.0
 31
0.0
  0
LINE
  5
1D6
100
AcDbEntity
  8
CLASS1
390
0
  6
CONTINUOUS
 62
   130
100
AcDbLine
 10
-43.0
 20
-113.5
 30
0.0
 11
-43.0
 21
-126.0
 31
0.0
  0
LINE
  5
1D7
100
AcDbEntity
  8
CLASS1
390
0
  6
CONTINUOUS
 62
   130
100
AcDbLine
 10
-32.217645
 20
-117.014689
 30
0.0
 11
-39.920969
 21
-123.434125
 31
0.0
  0
LINE
  5
1D8
100
AcDbEntity
  8
CLASS1
390
0
  6
CONTINUOUS
 62
   130
100
AcDbLine
 10
17.0
 20
-126.0
 30
0.0
 11
95.0
 21
-126.0
 31
0.0
  0
CIRCLE
  5
1D9
100
AcDbEntity
  8
CLASS1
390
0
  6
CONTINUOUS
 62
   130
100
AcDbCircle
 10
-86.340515
 20
-119.75
 30
0.0
 40
3.375
  0
CIRCLE
  5
1DA
100
AcDbEntity
  8
CLASS1
390
0
  6
CONTINUOUS
 62
   130
100
AcDbCircle
 10
-86.340515
 20
-119.75
 30
0.0
 40
1.875
  0
MTEXT
  5
1DB
100
AcDbEntity
  8
CLASS1
390
0
  6
CONTINUOUS
 62
   140
100
AcDbMText
 10
4.121792
 20
-114.398474
 30
0.0
 40
3.2
 41
0.0
 71
     1
 72
     1
  1
\T0.958395;\W1.043411;\A1;承　認
 73
     1
 44
1.152
  0
MTEXT
  5
1DC
100
AcDbEntity
  8
CLASS1
390
0
  6
CONTINUOUS
 62
   140
100
AcDbMText
 10
-25.878208
 20
-114.398474
 30
0.0
 40
3.2
 41
0.0
 71
     1
 72
     1
  1
\T0.958395;\W1.043411;\A1;製　図
 73
     1
 44
1.152
  0
MTEXT
  5
1DD
100
AcDbEntity
  8
CLASS1
390
0
  6
CONTINUOUS
 62
   140
100
AcDbMText
 10
-10.878208
 20
-114.398474
 30
0.0
 40
3.2
 41
0.0
 71
     1
 72
     1
  1
\T0.958395;\W1.043411;\A1;検　図
 73
     1
 44
1.152
  0
MTEXT
  5
1DE
100
AcDbEntity
  8
CLASS1
390
0
  6
CONTINUOUS
 62
   140
100
AcDbMText
 10
17.889511
 20
-115.09462
 30
0.0
 40
3.75
 41
0.0
 71
     1
 72
     1
  1
\T0.958395;\W1.043411;\A1;品
 73
     1
 44
1.152
  0
MTEXT
  5
1DF
100
AcDbEntity
  8
CLASS1
390
0
  6
CONTINUOUS
 62
   140
100
AcDbMText
 10
17.889511
 20
-120.09462
 30
0.0
 40
3.75
 41
0.0
 71
     1
 72
     1
  1
\T0.958395;\W1.043411;\A1;番
 73
     1
 44
1.152
  0
MTEXT
  5
1E0
100
AcDbEntity
  8
CLASS1
390
0
  6
CONTINUOUS
 62
   140
100
AcDbMText
 10
17.889511
 20
-127.59462
 30
0.0
 40
3.75
 41
0.0
 71
     1
 72
     1
  1
\T0.958395;\W1.043411;\A1;品
 73
     1
 44
1.152
  0
MTEXT
  5
1E1
100
AcDbEntity
  8
CLASS1
390
0
  6
CONTINUOUS
 62
   140
100
AcDbMText
 10
-66.626118
 20
-117.951172
 30
0.0
 40
3.75
 41
0.0
 71
     1
 72
     1
  1
\T0.958395;\W1.043411;\A1;単位ｍｍ
 73
     1
 44
1.152
  0
MTEXT
  5
1E2
100
AcDbEntity
  8
CLASS1
390
0
  6
CONTINUOUS
 62
   140
100
AcDbMText
 10
-47.110489
 20
-120.09462
 30
0.0
 40
3.75
 41
0.0
 71
     1
 72
     1
  1
\T0.958395;\W1.043411;\A1;度
 73
     1
 44
1.152
  0
MTEXT
  5
1E3
100
AcDbEntity
  8
CLASS1
390
0
  6
CONTINUOUS
 62
   140
100
AcDbMText
 10
-47.110489
 20
-115.09462
 30
0.0
 40
3.75
 41
0.0
 71
     1
 72
     1
  1
\T0.958395;\W1.043411;\A1;尺
 73
     1
 44
1.152
  0
MTEXT
  5
1E4
100
AcDbEntity
  8
CLASS1
390
0
  6
CONTINUOUS
 62
   140
100
AcDbMText
 10
17.889511
 20
-132.59462
 30
0.0
 40
3.75
 41
0.0
 71
     1
 72
     1
  1
\T0.958395;\W1.043411;\A1;名
 73
     1
 44
1.152
  0
LINE
  5
1E5
100
AcDbEntity
  8
CLASS1
390
0
  6
CONTINUOUS
 62
   130
100
AcDbLine
 10
-28.0
 20
-113.5
 30
0.0
 11
-28.0
 21
-138.5
 31
0.0
  0
LINE
  5
1E6
100
AcDbEntity
  8
CLASS1
390
0
  6
CONTINUOUS
 62
   130
100
AcDbLine
 10
22.0
 20
-113.5
 30
0.0
 11
22.0
 21
-138.5
 31
0.0
  0
LINE
  5
1E7
100
AcDbEntity
  8
CLASS1
390
0
  6
CONTINUOUS
 62
   130
100
AcDbLine
 10
-13.0
 20
-113.5
 30
0.0
 11
-13.0
 21
-133.5
 31
0.0
  0
LINE
  5
1E8
100
AcDbEntity
  8
CLASS1
390
0
  6
CONTINUOUS
 62
   130
100
AcDbLine
 10
2.0
 20
-113.5
 30
0.0
 11
2.0
 21
-133.5
 31
0.0
  0
LINE
  5
1E9
100
AcDbEntity
  8
CLASS1
390
0
  6
CONTINUOUS
 62
   130
100
AcDbLine
 10
17.0
 20
-113.5
 30
0.0
 11
17.0
 21
-138.5
 31
0.0
  0
LINE
  5
1EA
100
AcDbEntity
  8
CLASS1
390
0
  6
CONTINUOUS
 62
   120
100
AcDbLine
 10
-95.0
 20
-138.5
 30
0.0
 11
-95.0
 21
138.5
 31
0.0
  0
LINE
  5
1EB
100
AcDbEntity
  8
CLASS1
390
0
  6
CONTINUOUS
 62
   120
100
AcDbLine
 10
-95.0
 20
138.5
 30
0.0
 11
95.0
 21
138.5
 31
0.0
  0
LINE
  5
1EC
100
AcDbEntity
  8
CLASS1
390
0
  6
CONTINUOUS
 62
   120
100
AcDbLine
 10
95.0
 20
-138.5
 30
0.0
 11
95.0
 21
138.5
 31
0.0
  0
LINE
  5
1ED
100
AcDbEntity
  8
CLASS1
390
0
  6
CONTINUOUS
 62
   120
100
AcDbLine
 10
-95.0
 20
-138.5
 30
0.0
 11
95.0
 21
-138.5
 31
0.0
  0
LINE
  5
1EF
100
AcDbEntity
  8
DEFPOINTS
390
0
  6
NON_PLOTING
 62
   130
100
AcDbLine
 10
105.0
 20
-148.5
 30
0.0
 11
105.0
 21
148.5
 31
0.0
  0
LINE
  5
1F0
100
AcDbEntity
  8
DEFPOINTS
390
0
  6
NON_PLOTING
 62
   130
100
AcDbLine
 10
-105.0
 20
-148.5
 30
0.0
 11
-105.0
 21
148.5
 31
0.0
  0
LINE
  5
1F1
100
AcDbEntity
  8
DEFPOINTS
390
0
  6
NON_PLOTING
 62
   130
100
AcDbLine
 10
-105.0
 20
-148.5
 30
0.0
 11
105.0
 21
-148.5
 31
0.0
  0
LINE
  5
1F2
100
AcDbEntity
  8
DEFPOINTS
390
0
  6
NON_PLOTING
 62
   130
100
AcDbLine
 10
-105.0
 20
148.5
 30
0.0
 11
105.0
 21
148.5
 31
0.0
  0
ENDSEC
  0
SECTION
  2
OBJECTS
  0
DICTIONARY
  5
19
100
AcDbDictionary
280
     0
281
     1
  3
ACAD_GROUP
350
1A
  3
ACAD_MLINESTYLE
350
1B
  3
ACAD_LAYOUT
350
1E
  3
ACAD_PLOTSETTINGS
350
22
  3
ACAD_PLOTSTYLENAME
350
1F
  0
DICTIONARY
  5
1A
102
{ACAD_REACTORS
330
19
102
}
100
AcDbDictionary
280
     0
281
     1
  0
DICTIONARY
  5
1B
102
{ACAD_REACTORS
330
19
102
}
100
AcDbDictionary
280
     0
281
     1
  3
Standard
350
1C
  0
MLINESTYLE
  5
1C
102
{ACAD_REACTORS
330
1B
102
}
100
AcDbMlineStyle
  2
Standard
 70
     0
  3

 62
     0
 51
90.0
 52
90.0
 71
     2
 49
0.5
 62
   256
  6
ByLayer
 49
-0.5
 62
   256
  6
ByLayer
  0
ACDBDICTIONARYWDFLT
  5
1F
102
{ACAD_REACTORS
330
19
102
}
100
AcDbDictionary
281
     1
  3
Normal
350
1D
100
AcDbDictionaryWithDefault
340
1D
  0
ACDBPLACEHOLDER
  5
1D
102
{ACAD_REACTORS
330
1F
102
}
  0
LAYOUT
  5
20
102
{ACAD_REACTORS
330
1E
102
}
100
AcDbPlotSettings
  1

  2

  4

  6

 40
0.0
 41
0.0
 42
0.0
 43
0.0
 44
0.0
 45
0.0
 46
0.0
 47
0.0
 48
0.0
 49
0.0
140
0.0
141
0.0
142
1.0
143
1.0
 70
  1024
 72
     0
 73
     0
 74
     0
  7

 75
     0
147
1.0
148
0.0
149
0.0
100
AcDbLayout
  1
Model
 70
     0
 71
     0
 10
0.0
 20
0.0
 11
0.0
 21
0.0
 12
0.0
 22
0.0
 32
0.0
 14
0.0
 24
0.0
 34
0.0
 15
0.0
 25
0.0
 35
0.0
146
0.0
 13
0.0
 23
0.0
 33
0.0
 16
0.0
 26
0.0
 36
0.0
 17
0.0
 27
0.0
 37
0.0
 76
     0
330
A
331
0
345
0
346
0
  0
LAYOUT
  5
21
102
{ACAD_REACTORS
330
1E
102
}
100
AcDbPlotSettings
  1

  2

  4

  6

 40
0.0
 41
0.0
 42
0.0
 43
0.0
 44
0.0
 45
0.0
 46
0.0
 47
0.0
 48
0.0
 49
0.0
140
0.0
141
0.0
142
1.0
143
1.0
 70
     0
 72
     0
 73
     0
 74
     0
  7

 75
     0
147
1.0
148
0.0
149
0.0
100
AcDbLayout
  1
Layout1
 70
     0
 71
     0
 10
0.0
 20
0.0
 11
0.0
 21
0.0
 12
0.0
 22
0.0
 32
0.0
 14
0.0
 24
0.0
 34
0.0
 15
0.0
 25
0.0
 35
0.0
146
0.0
 13
0.0
 23
0.0
 33
0.0
 16
0.0
 26
0.0
 36
0.0
 17
0.0
 27
0.0
 37
0.0
 76
     0
330
B
331
0
345
0
346
0
  0
DICTIONARY
  5
1E
102
{ACAD_REACTORS
330
19
102
}
100
AcDbDictionary
280
     0
281
     1
  3
Layout1
350
21
  3
Model
350
20
  0
DICTIONARY
  5
22
102
{ACAD_REACTORS
330
19
102
}
100
AcDbDictionary
280
     0
281
     1
  0
ENDSEC
  0
EOF
